  0
SECTION
  2
HEADER
  9
$ACADVER
  1
AC1009
  9
$DWGCODEPAGE
  3
ansi_1252
  9
$INSBASE
 10
0.0
 20
0.0
 30
0.0
  9
$EXTMIN
 10
-740.8027940171705
 20
-386.3703305156273
 30
0.0
  9
$EXTMAX
 10
25.80279401717013
 20
196.1351084139026
 30
0.0
  9
$LIMMIN
 10
0.0
 20
0.0
  9
$LIMMAX
 10
420.0
 20
297.0
  9
$ORTHOMODE
 70
     0
  9
$REGENMODE
 70
     1
  9
$FILLMODE
 70
     1
  9
$QTEXTMODE
 70
     0
  9
$MIRRTEXT
 70
     0
  9
$DRAGMODE
 70
     2
  9
$LTSCALE
 40
1.0
  9
$OSMODE
 70
    37
  9
$ATTMODE
 70
     1
  9
$TEXTSIZE
 40
2.5
  9
$TRACEWID
 40
1.0
  9
$TEXTSTYLE
  7
STANDARD
  9
$CLAYER
  8
0
  9
$CELTYPE
  6
BYLAYER
  9
$CECOLOR
 62
   256
  9
$DIMSCALE
 40
1.0
  9
$DIMASZ
 40
2.5
  9
$DIMEXO
 40
0.625
  9
$DIMDLI
 40
3.75
  9
$DIMRND
 40
0.0
  9
$DIMDLE
 40
0.0
  9
$DIMEXE
 40
1.25
  9
$DIMTP
 40
0.0
  9
$DIMTM
 40
0.0
  9
$DIMTXT
 40
50.0
  9
$DIMCEN
 40
2.5
  9
$DIMTSZ
 40
0.0
  9
$DIMTOL
 70
     0
  9
$DIMLIM
 70
     0
  9
$DIMTIH
 70
     0
  9
$DIMTOH
 70
     0
  9
$DIMSE1
 70
     0
  9
$DIMSE2
 70
     0
  9
$DIMTAD
 70
     1
  9
$DIMZIN
 70
     8
  9
$DIMBLK
  1

  9
$DIMASO
 70
     1
  9
$DIMSHO
 70
     1
  9
$DIMPOST
  1

  9
$DIMAPOST
  1

  9
$DIMALT
 70
     0
  9
$DIMALTD
 70
     3
  9
$DIMALTF
 40
0.03937007874016
  9
$DIMLFAC
 40
1.0
  9
$DIMTOFL
 70
     1
  9
$DIMTVP
 40
0.0
  9
$DIMTIX
 70
     0
  9
$DIMSOXD
 70
     0
  9
$DIMSAH
 70
     0
  9
$DIMBLK1
  1

  9
$DIMBLK2
  1

  9
$DIMSTYLE
  2
ISO-25
  9
$DIMCLRD
 70
     0
  9
$DIMCLRE
 70
     0
  9
$DIMCLRT
 70
     0
  9
$DIMTFAC
 40
1.0
  9
$DIMGAP
 40
0.625
  9
$LUNITS
 70
     2
  9
$LUPREC
 70
     4
  9
$SKETCHINC
 40
1.0
  9
$FILLETRAD
 40
0.0
  9
$AUNITS
 70
     0
  9
$AUPREC
 70
     0
  9
$MENU
  1
.
  9
$ELEVATION
 40
0.0
  9
$PELEVATION
 40
0.0
  9
$THICKNESS
 40
0.0
  9
$LIMCHECK
 70
     0
  9
$CHAMFERA
 40
0.0
  9
$CHAMFERB
 40
0.0
  9
$SKPOLY
 70
     0
  9
$TDCREATE
 40
2453353.800459155
  9
$TDUPDATE
 40
2454574.141497778
  9
$TDINDWG
 40
9791572.06217926
  9
$TDUSRTIMER
 40
9763448.072853334
  9
$USRTIMER
 70
     1
  9
$ANGBASE
 50
0.0
  9
$ANGDIR
 70
     0
  9
$PDMODE
 70
     0
  9
$PDSIZE
 40
0.0
  9
$PLINEWID
 40
9.0
  9
$COORDS
 70
     1
  9
$SPLFRAME
 70
     0
  9
$SPLINETYPE
 70
     6
  9
$SPLINESEGS
 70
     8
  9
$ATTDIA
 70
     0
  9
$ATTREQ
 70
     1
  9
$HANDLING
 70
     1
  9
$HANDSEED
  5
DE
  9
$SURFTAB1
 70
     6
  9
$SURFTAB2
 70
     6
  9
$SURFTYPE
 70
     6
  9
$SURFU
 70
     6
  9
$SURFV
 70
     6
  9
$UCSNAME
  2

  9
$UCSORG
 10
0.0
 20
0.0
 30
0.0
  9
$UCSXDIR
 10
1.0
 20
0.0
 30
0.0
  9
$UCSYDIR
 10
0.0
 20
1.0
 30
0.0
  9
$PUCSNAME
  2

  9
$PUCSORG
 10
0.0
 20
0.0
 30
0.0
  9
$PUCSXDIR
 10
1.0
 20
0.0
 30
0.0
  9
$PUCSYDIR
 10
0.0
 20
1.0
 30
0.0
  9
$USERI1
 70
     0
  9
$USERI2
 70
     0
  9
$USERI3
 70
     0
  9
$USERI4
 70
     0
  9
$USERI5
 70
     0
  9
$USERR1
 40
0.0
  9
$USERR2
 40
0.0
  9
$USERR3
 40
0.0
  9
$USERR4
 40
0.0
  9
$USERR5
 40
0.0
  9
$WORLDVIEW
 70
     1
  9
$SHADEDGE
 70
     3
  9
$SHADEDIF
 70
    70
  9
$TILEMODE
 70
     1
  9
$MAXACTVP
 70
    64
  9
$PLIMCHECK
 70
     0
  9
$PEXTMIN
 10
0.0
 20
0.0
 30
0.0
  9
$PEXTMAX
 10
0.0
 20
0.0
 30
0.0
  9
$PLIMMIN
 10
0.0
 20
0.0
  9
$PLIMMAX
 10
12.0
 20
9.0
  9
$UNITMODE
 70
     0
  9
$VISRETAIN
 70
     1
  9
$PLINEGEN
 70
     0
  9
$PSLTSCALE
 70
     1
  0
ENDSEC
  0
SECTION
  2
TABLES
  0
TABLE
  2
VPORT
 70
     1
  0
VPORT
  2
*ACTIVE
 70
     0
 10
0.0
 20
0.0
 11
1.0
 21
1.0
 12
65.8078495891299
 22
-130.2410046614235
 13
0.0
 23
0.0
 14
0.5
 24
0.5
 15
0.5
 25
0.5
 16
0.0
 26
0.0
 36
1.0
 17
0.0
 27
0.0
 37
0.0
 40
1692.598246254375
 41
1.333333333333333
 42
50.0
 43
0.0
 44
0.0
 50
0.0
 51
0.0
 71
    16
 72
   100
 73
     0
 74
     1
 75
     0
 76
     0
 77
     0
 78
     0
  0
ENDTAB
  0
TABLE
  2
LTYPE
 70
     1
  0
LTYPE
  2
CONTINUOUS
 70
     0
  3
CONTINUOUS
 72
    65
 73
     0
 40
0.0
  0
ENDTAB
  0
TABLE
  2
LAYER
 70
     3
  0
LAYER
  2
0
 70
     0
 62
     7
  6
CONTINUOUS
  0
LAYER
  2
INFO
 70
     0
 62
     3
  6
CONTINUOUS
  0
LAYER
  2
DEFPOINTS
 70
     0
 62
     7
  6
CONTINUOUS
  0
ENDTAB
  0
TABLE
  2
STYLE
 70
     1
  0
STYLE
  2
STANDARD
 70
     0
 40
0.0
 41
1.0
 50
0.0
 71
     0
 42
2.5
  3
txt
  4

  0
ENDTAB
  0
TABLE
  2
VIEW
 70
     0
  0
ENDTAB
  0
TABLE
  2
UCS
 70
     0
  0
ENDTAB
  0
TABLE
  2
APPID
 70
     1
  0
APPID
  2
ACAD
 70
     0
  0
ENDTAB
  0
TABLE
  2
DIMSTYLE
 70
     2
  0
DIMSTYLE
  2
STANDARD
 70
     0
  3

  4

  5

  6

  7

 40
1.0
 41
0.18
 42
0.0625
 43
0.38
 44
0.18
 45
0.0
 46
0.0
 47
0.0
 48
0.0
140
0.18
141
0.09
142
0.0
143
25.4
144
1.0
145
0.0
146
1.0
147
0.09
 71
     0
 72
     0
 73
     1
 74
     1
 75
     0
 76
     0
 77
     0
 78
     0
170
     0
171
     2
172
     0
173
     0
174
     0
175
     0
176
     0
177
     0
178
     0
  0
DIMSTYLE
  2
ISO-25
 70
     0
  3

  4

  5

  6

  7

 40
1.0
 41
2.5
 42
0.625
 43
3.75
 44
1.25
 45
0.0
 46
0.0
 47
0.0
 48
0.0
140
2.5
141
2.5
142
0.0
143
0.03937007874016
144
1.0
145
0.0
146
1.0
147
0.625
 71
     0
 72
     0
 73
     0
 74
     0
 75
     0
 76
     0
 77
     1
 78
     8
170
     0
171
     3
172
     1
173
     0
174
     0
175
     0
176
     0
177
     0
178
     0
  0
ENDTAB
  0
ENDSEC
  0
SECTION
  2
BLOCKS
  0
BLOCK
  8
0
  2
$MODEL_SPACE
 70
     0
 10
0.0
 20
0.0
 30
0.0
  3
$MODEL_SPACE
  1

  0
ENDBLK
  5
21
  8
0
  0
BLOCK
 67
     1
  8
0
  2
$PAPER_SPACE
 70
     0
 10
0.0
 20
0.0
 30
0.0
  3
$PAPER_SPACE
  1

  0
ENDBLK
  5
76
 67
     1
  8
0
  0
BLOCK
  8
0
  2
*D1
 70
     1
 10
0.0
 20
0.0
 30
0.0
  3
*D1
  1

  0
LINE
  5
4C
  8
INFO
 62
     0
 10
-715.0
 20
0.0625
 30
0.0
 11
-715.0
 21
47.72547546829372
 31
0.0
  0
LINE
  5
4D
  8
INFO
 62
     0
 10
0.0
 20
0.0625
 30
0.0
 11
0.0
 21
47.72547546829372
 31
0.0
  0
LINE
  5
4E
  8
INFO
 62
     0
 10
-714.8200000000001
 20
47.54547546829372
 30
0.0
 11
-507.34
 21
47.54547546829372
 31
0.0
  0
LINE
  5
4F
  8
INFO
 62
     0
 10
-0.18
 20
47.54547546829372
 30
0.0
 11
-207.66
 21
47.54547546829372
 31
0.0
  0
SOLID
  5
50
  8
INFO
 62
     0
 10
-714.8200000000001
 20
47.57547546829372
 30
0.0
 11
-714.8200000000001
 21
47.51547546829372
 31
0.0
 12
-715.0
 22
47.54547546829372
 32
0.0
 13
-715.0
 23
47.54547546829372
 33
0.0
  0
SOLID
  5
51
  8
INFO
 62
     0
 10
-0.18
 20
47.51547546829372
 30
0.0
 11
-0.18
 21
47.57547546829372
 31
0.0
 12
0.0
 22
47.54547546829372
 32
0.0
 13
0.0
 23
47.54547546829372
 33
0.0
  0
TEXT
  5
52
  8
INFO
 62
     0
 10
-507.25
 20
22.54547546829372
 30
0.0
 40
50.0
  1
715.0000
  0
POINT
  5
53
  8
DEFPOINTS
 62
     0
 10
-715.0
 20
0.0
 30
0.0
  0
POINT
  5
CB
  8
DEFPOINTS
 62
     0
 10
0.0
 20
0.0
 30
0.0
  0
POINT
  5
CC
  8
DEFPOINTS
 62
     0
 10
0.0
 20
47.54547546829372
 30
0.0
  0
ENDBLK
  5
C6
  8
0
  0
BLOCK
  8
0
  2
*D2
 70
     1
 10
0.0
 20
0.0
 30
0.0
  3
*D2
  1

  0
LINE
  5
58
  8
INFO
 62
     0
 10
0.0161761903189075
 20
0.0603703641430668
 30
0.0
 11
25.52585763891089
 21
95.26379761518575
 31
0.0
  0
LINE
  5
A0
  8
INFO
 62
     0
 10
-715.0161761903189
 20
0.0603703641430668
 30
0.0
 11
-740.5258576389109
 21
95.26379761518575
 31
0.0
  0
ARC
  5
A1
  8
INFO
 62
     0
 10
-357.5
 20
-1334.208163705873
 30
0.0
 40
1479.718272119776
 50
75.00696973236366
 51
87.90512871903047
  0
ARC
  5
5B
  8
INFO
 62
     0
 10
-357.5
 20
-1334.208163705873
 30
0.0
 40
1479.718272119776
 50
92.09487128096953
 51
104.9930302676363
  0
SOLID
  5
5C
  8
INFO
 62
     0
 10
25.29763791998227
 20
95.10752957250593
 30
0.0
 11
25.3131635376647
 21
95.16548606649563
 31
0.0
 12
25.47927021079261
 22
95.08993096645349
 32
0.0
 13
25.47927021079261
 23
95.08993096645349
 33
0.0
  0
SOLID
  5
5D
  8
INFO
 62
     0
 10
-740.3131635376645
 20
95.16548606649586
 30
0.0
 11
-740.2976379199821
 21
95.10752957250615
 31
0.0
 12
-740.4792702107925
 22
95.08993096645372
 32
0.0
 13
-740.4792702107925
 23
95.08993096645372
 33
0.0
  0
TEXT
  5
A2
  8
INFO
 62
     0
 10
-411.4999999999999
 20
120.5101084139026
 30
0.0
 40
50.0
  1
30\U+00B0
  0
POINT
  5
5F
  8
DEFPOINTS
 62
     0
 10
-306.8777367171045
 20
144.6439422551158
 30
0.0
  0
POINT
  5
60
  8
DEFPOINTS
 62
     0
 10
0.0
 20
0.0
 30
0.0
  0
POINT
  5
61
  8
DEFPOINTS
 62
     0
 10
-715.0
 20
0.0
 30
0.0
  0
POINT
  5
CD
  8
DEFPOINTS
 62
     0
 10
-666.4714290432773
 20
-181.1110924292003
 30
0.0
  0
POINT
  5
CE
  8
DEFPOINTS
 62
     0
 10
-48.52857095672266
 20
-181.1110924292003
 30
0.0
  0
ENDBLK
  5
C8
  8
0
  0
BLOCK
  8
0
  2
NRE-228
 70
     0
 10
0.0
 20
0.0
 30
0.0
  3
NRE-228
  1

  0
LINE
  5
AF
  8
0
 10
-715.0
 20
0.0
 30
0.0
 11
-666.4714290432773
 21
-181.1110924292003
 31
0.0
  0
LINE
  5
B0
  8
0
 10
-666.4714290432773
 20
-181.1110924292003
 30
0.0
 11
-660.0009529157144
 21
-205.259238086427
 31
0.0
  0
LINE
  5
B1
  8
0
 10
-660.0009529157144
 20
-205.259238086427
 30
0.0
 11
-611.4723819589917
 21
-386.3703305156273
 31
0.0
  0
LINE
  5
B2
  8
0
 10
0.0
 20
0.0
 30
0.0
 11
-48.52857095672266
 21
-181.1110924292003
 31
0.0
  0
LINE
  5
B3
  8
0
 10
-48.52857095672266
 20
-181.1110924292003
 30
0.0
 11
-54.99904708428562
 21
-205.259238086427
 31
0.0
  0
LINE
  5
B4
  8
0
 10
-54.99904708428562
 20
-205.259238086427
 30
0.0
 11
-103.5276180410083
 21
-386.3703305156273
 31
0.0
  0
LINE
  5
B5
  8
0
 10
-715.0
 20
0.0
 30
0.0
 11
0.0
 21
0.0
 31
0.0
  0
LINE
  5
B6
  8
0
 10
-611.4723819589917
 20
-386.3703305156273
 30
0.0
 11
-103.5276180410083
 21
-386.3703305156273
 31
0.0
  0
POLYLINE
  5
B7
  8
0
 66
     1
 10
0.0
 20
0.0
 30
0.0
 40
9.0
 41
9.0
  0
VERTEX
  5
D9
  8
0
 10
-660.0009529157144
 20
-205.259238086427
 30
0.0
 42
-0.1317428127082693
  0
VERTEX
  5
DA
  8
0
 10
-54.99904708428562
 20
-205.259238086427
 30
0.0
 42
-7.590546910626492
  0
SEQEND
  5
D8
  8
0
  0
POLYLINE
  5
B8
  8
0
 66
     1
 10
0.0
 20
0.0
 30
0.0
 40
9.0
 41
9.0
  0
VERTEX
  5
DC
  8
0
 10
-666.4714290432773
 20
-181.1110924292003
 30
0.0
 42
-0.1316266918383763
  0
VERTEX
  5
DD
  8
0
 10
-48.52857095672266
 20
-181.1110924292003
 30
0.0
 42
-7.597243279713311
  0
SEQEND
  5
DB
  8
0
  0
TEXT
  5
B9
  8
0
 10
-466.299226439494
 20
-58.48749072459907
 30
0.0
 40
50.0
  1
ChMar
  0
TEXT
  5
BA
  8
0
 10
-495.0600618606273
 20
-121.0846031117718
 30
0.0
 40
50.0
  1
NRE-228
  0
TEXT
  5
BB
  8
0
 10
-559.7452704512219
 20
-286.8032293746007
 30
0.0
 40
80.0
  1
Bogen2
  0
TEXT
  5
BC
  8
0
 62
     2
 10
-471.3746679843999
 20
-350.4945609415184
 30
0.0
 40
25.0
  1
FJ 04/2008
  0
DIMENSION
  5
BD
  8
INFO
  2
*D1
 10
0.0
 20
47.54547546829372
 30
0.0
 11
-357.5
 21
47.54547546829372
 31
0.0
 70
    33
  3
STANDARD
 13
-715.0
 23
0.0
 33
0.0
 14
0.0
 24
0.0
 34
0.0
1001
ACAD
1000
DSTYLE
1002
{
1070
   140
1040
50.0
1002
}
  0
DIMENSION
  5
BE
  8
INFO
  2
*D2
 10
-48.52857095672266
 20
-181.1110924292003
 30
0.0
 11
-357.4999999999999
 21
145.5101084139026
 31
0.0
 70
    34
  3
STANDARD
 13
-715.0
 23
0.0
 33
0.0
 14
-666.4714290432773
 24
-181.1110924292003
 34
0.0
 15
0.0
 25
0.0
 35
0.0
 16
-306.8777367171045
 26
144.6439422551158
 36
0.0
1001
ACAD
1000
DSTYLE
1002
{
1070
   140
1040
50.0
1002
}
  0
ENDBLK
  5
CA
  8
0
  0
ENDSEC
  0
SECTION
  2
ENTITIES
  0
INSERT
  5
C1
  8
0
  2
NRE-228
 10
0.0
 20
0.0
 30
0.0
  0
ENDSEC
  0
EOF
