  0
SECTION
  2
HEADER
  9
$ACADVER
  1
AC1009
  9
$DWGCODEPAGE
  3
ansi_1252
  9
$INSBASE
 10
0.0
 20
0.0
 30
0.0
  9
$EXTMIN
 10
256.0647118819533
 20
-806.5139171686958
 30
0.0
  9
$EXTMAX
 10
1256.064711881953
 20
-327.82548085855
 30
0.0
  9
$LIMMIN
 10
0.0
 20
0.0
  9
$LIMMAX
 10
420.0
 20
297.0
  9
$ORTHOMODE
 70
     0
  9
$REGENMODE
 70
     1
  9
$FILLMODE
 70
     1
  9
$QTEXTMODE
 70
     0
  9
$MIRRTEXT
 70
     0
  9
$DRAGMODE
 70
     2
  9
$LTSCALE
 40
1.0
  9
$OSMODE
 70
    37
  9
$ATTMODE
 70
     1
  9
$TEXTSIZE
 40
2.5
  9
$TRACEWID
 40
1.0
  9
$TEXTSTYLE
  7
STANDARD
  9
$CLAYER
  8
0
  9
$CELTYPE
  6
BYLAYER
  9
$CECOLOR
 62
   256
  9
$DIMSCALE
 40
1.0
  9
$DIMASZ
 40
2.5
  9
$DIMEXO
 40
0.625
  9
$DIMDLI
 40
3.75
  9
$DIMRND
 40
0.0
  9
$DIMDLE
 40
0.0
  9
$DIMEXE
 40
1.25
  9
$DIMTP
 40
0.0
  9
$DIMTM
 40
0.0
  9
$DIMTXT
 40
2.5
  9
$DIMCEN
 40
2.5
  9
$DIMTSZ
 40
0.0
  9
$DIMTOL
 70
     0
  9
$DIMLIM
 70
     0
  9
$DIMTIH
 70
     0
  9
$DIMTOH
 70
     0
  9
$DIMSE1
 70
     0
  9
$DIMSE2
 70
     0
  9
$DIMTAD
 70
     1
  9
$DIMZIN
 70
     8
  9
$DIMBLK
  1

  9
$DIMASO
 70
     1
  9
$DIMSHO
 70
     1
  9
$DIMPOST
  1

  9
$DIMAPOST
  1

  9
$DIMALT
 70
     0
  9
$DIMALTD
 70
     3
  9
$DIMALTF
 40
0.03937007874016
  9
$DIMLFAC
 40
1.0
  9
$DIMTOFL
 70
     1
  9
$DIMTVP
 40
0.0
  9
$DIMTIX
 70
     0
  9
$DIMSOXD
 70
     0
  9
$DIMSAH
 70
     0
  9
$DIMBLK1
  1

  9
$DIMBLK2
  1

  9
$DIMSTYLE
  2
ISO-25
  9
$DIMCLRD
 70
     0
  9
$DIMCLRE
 70
     0
  9
$DIMCLRT
 70
     0
  9
$DIMTFAC
 40
1.0
  9
$DIMGAP
 40
0.625
  9
$LUNITS
 70
     2
  9
$LUPREC
 70
     4
  9
$SKETCHINC
 40
1.0
  9
$FILLETRAD
 40
0.0
  9
$AUNITS
 70
     0
  9
$AUPREC
 70
     0
  9
$MENU
  1
.
  9
$ELEVATION
 40
0.0
  9
$PELEVATION
 40
0.0
  9
$THICKNESS
 40
0.0
  9
$LIMCHECK
 70
     0
  9
$CHAMFERA
 40
0.0
  9
$CHAMFERB
 40
0.0
  9
$SKPOLY
 70
     0
  9
$TDCREATE
 40
2453353.800459155
  9
$TDUPDATE
 40
2454965.126007407
  9
$TDINDWG
 40
2440852.080755556
  9
$TDUSRTIMER
 40
2440852.062373333
  9
$USRTIMER
 70
     1
  9
$ANGBASE
 50
0.0
  9
$ANGDIR
 70
     0
  9
$PDMODE
 70
     0
  9
$PDSIZE
 40
0.0
  9
$PLINEWID
 40
9.0
  9
$COORDS
 70
     1
  9
$SPLFRAME
 70
     0
  9
$SPLINETYPE
 70
     6
  9
$SPLINESEGS
 70
     8
  9
$ATTDIA
 70
     0
  9
$ATTREQ
 70
     1
  9
$HANDLING
 70
     1
  9
$HANDSEED
  5
161
  9
$SURFTAB1
 70
     6
  9
$SURFTAB2
 70
     6
  9
$SURFTYPE
 70
     6
  9
$SURFU
 70
     6
  9
$SURFV
 70
     6
  9
$UCSNAME
  2

  9
$UCSORG
 10
0.0
 20
0.0
 30
0.0
  9
$UCSXDIR
 10
1.0
 20
0.0
 30
0.0
  9
$UCSYDIR
 10
0.0
 20
1.0
 30
0.0
  9
$PUCSNAME
  2

  9
$PUCSORG
 10
0.0
 20
0.0
 30
0.0
  9
$PUCSXDIR
 10
1.0
 20
0.0
 30
0.0
  9
$PUCSYDIR
 10
0.0
 20
1.0
 30
0.0
  9
$USERI1
 70
     0
  9
$USERI2
 70
     0
  9
$USERI3
 70
     0
  9
$USERI4
 70
     0
  9
$USERI5
 70
     0
  9
$USERR1
 40
0.0
  9
$USERR2
 40
0.0
  9
$USERR3
 40
0.0
  9
$USERR4
 40
0.0
  9
$USERR5
 40
0.0
  9
$WORLDVIEW
 70
     1
  9
$SHADEDGE
 70
     3
  9
$SHADEDIF
 70
    70
  9
$TILEMODE
 70
     1
  9
$MAXACTVP
 70
    64
  9
$PLIMCHECK
 70
     0
  9
$PEXTMIN
 10
0.0
 20
0.0
 30
0.0
  9
$PEXTMAX
 10
0.0
 20
0.0
 30
0.0
  9
$PLIMMIN
 10
0.0
 20
0.0
  9
$PLIMMAX
 10
12.0
 20
9.0
  9
$UNITMODE
 70
     0
  9
$VISRETAIN
 70
     1
  9
$PLINEGEN
 70
     0
  9
$PSLTSCALE
 70
     1
  0
ENDSEC
  0
SECTION
  2
TABLES
  0
TABLE
  2
VPORT
 70
     1
  0
VPORT
  2
*ACTIVE
 70
     0
 10
0.0
 20
0.0
 11
1.0
 21
1.0
 12
938.5814930731175
 22
-600.4355823527169
 13
0.0
 23
0.0
 14
0.5
 24
0.5
 15
0.5
 25
0.5
 16
0.0
 26
0.0
 36
1.0
 17
0.0
 27
0.0
 37
0.0
 40
894.4661364582695
 41
1.333333333333333
 42
50.0
 43
0.0
 44
0.0
 50
0.0
 51
0.0
 71
    16
 72
   100
 73
     0
 74
     1
 75
     0
 76
     0
 77
     0
 78
     0
  0
ENDTAB
  0
TABLE
  2
LTYPE
 70
     1
  0
LTYPE
  2
CONTINUOUS
 70
     0
  3
CONTINUOUS
 72
    65
 73
     0
 40
0.0
  0
ENDTAB
  0
TABLE
  2
LAYER
 70
     3
  0
LAYER
  2
0
 70
     0
 62
     7
  6
CONTINUOUS
  0
LAYER
  2
INFO
 70
     0
 62
     3
  6
CONTINUOUS
  0
LAYER
  2
DEFPOINTS
 70
     0
 62
     7
  6
CONTINUOUS
  0
ENDTAB
  0
TABLE
  2
STYLE
 70
     1
  0
STYLE
  2
STANDARD
 70
     0
 40
0.0
 41
1.0
 50
0.0
 71
     0
 42
2.5
  3
txt
  4

  0
ENDTAB
  0
TABLE
  2
VIEW
 70
     0
  0
ENDTAB
  0
TABLE
  2
UCS
 70
     0
  0
ENDTAB
  0
TABLE
  2
APPID
 70
     1
  0
APPID
  2
ACAD
 70
     0
  0
ENDTAB
  0
TABLE
  2
DIMSTYLE
 70
     2
  0
DIMSTYLE
  2
STANDARD
 70
     0
  3

  4

  5

  6

  7

 40
1.0
 41
0.18
 42
0.0625
 43
0.38
 44
0.18
 45
0.0
 46
0.0
 47
0.0
 48
0.0
140
0.18
141
0.09
142
0.0
143
25.4
144
1.0
145
0.0
146
1.0
147
0.09
 71
     0
 72
     0
 73
     1
 74
     1
 75
     0
 76
     0
 77
     0
 78
     0
170
     0
171
     2
172
     0
173
     0
174
     0
175
     0
176
     0
177
     0
178
     0
  0
DIMSTYLE
  2
ISO-25
 70
     0
  3

  4

  5

  6

  7

 40
1.0
 41
2.5
 42
0.625
 43
3.75
 44
1.25
 45
0.0
 46
0.0
 47
0.0
 48
0.0
140
2.5
141
2.5
142
0.0
143
0.03937007874016
144
1.0
145
0.0
146
1.0
147
0.625
 71
     0
 72
     0
 73
     0
 74
     0
 75
     0
 76
     0
 77
     1
 78
     8
170
     0
171
     3
172
     1
173
     0
174
     0
175
     0
176
     0
177
     0
178
     0
  0
ENDTAB
  0
ENDSEC
  0
SECTION
  2
BLOCKS
  0
BLOCK
  8
0
  2
$MODEL_SPACE
 70
     0
 10
0.0
 20
0.0
 30
0.0
  3
$MODEL_SPACE
  1

  0
ENDBLK
  5
21
  8
0
  0
BLOCK
 67
     1
  8
0
  2
$PAPER_SPACE
 70
     0
 10
0.0
 20
0.0
 30
0.0
  3
$PAPER_SPACE
  1

  0
ENDBLK
  5
76
 67
     1
  8
0
  0
BLOCK
  8
0
  2
*D1
 70
     1
 10
0.0
 20
0.0
 30
0.0
  3
*D1
  1

  0
POINT
  5
4C
  8
DEFPOINTS
  6
BYBLOCK
 62
     0
 10
-1060.653632463743
 20
355.8590812370034
 30
0.0
  0
POINT
  5
4D
  8
DEFPOINTS
  6
BYBLOCK
 62
     0
 10
-345.6536324637432
 20
355.8590812370034
 30
0.0
  0
LINE
  5
4E
  8
0
  6
BYBLOCK
 62
     0
 10
-1060.653632463743
 20
356.4840812370034
 30
0.0
 11
-1060.653632463743
 21
404.6545567052971
 31
0.0
  0
LINE
  5
4F
  8
0
  6
BYBLOCK
 62
     0
 10
-345.6536324637432
 20
356.4840812370034
 30
0.0
 11
-345.6536324637432
 21
404.6545567052971
 31
0.0
  0
LINE
  5
50
  8
0
  6
BYBLOCK
 62
     0
 10
-1058.153632463743
 20
403.4045567052971
 30
0.0
 11
-348.1536324637432
 21
403.4045567052971
 31
0.0
  0
SOLID
  5
51
  8
0
  6
BYBLOCK
 62
     0
 10
-1060.653632463743
 20
403.4045567052971
 30
0.0
 11
-1058.153632463743
 21
402.9878900386303
 31
0.0
 12
-1058.153632463743
 22
403.8212233719638
 32
0.0
 13
-1058.153632463743
 23
403.8212233719638
 33
0.0
  0
SOLID
  5
52
  8
0
  6
BYBLOCK
 62
     0
 10
-345.6536324637432
 20
403.4045567052971
 30
0.0
 11
-348.1536324637432
 21
402.9878900386303
 31
0.0
 12
-348.1536324637432
 22
403.8212233719638
 32
0.0
 13
-348.1536324637432
 23
403.8212233719638
 33
0.0
  0
TEXT
  5
53
  8
0
  6
BYBLOCK
 62
     0
 10
-761.6536324637432
 20
404.0295567052971
 30
0.0
 40
50.0
  1
715
  0
ENDBLK
  5
144
  8
0
  0
BLOCK
  8
0
  2
*D2
 70
     1
 10
0.0
 20
0.0
 30
0.0
  3
*D2
  1

  0
TEXT
  5
58
  8
0
  6
BYBLOCK
 62
     0
 10
-757.1536324637438
 20
501.9941896509059
 30
0.0
 40
50.0
  1
30\U+00B0
  0
POINT
  5
A0
  8
DEFPOINTS
  6
BYBLOCK
 62
     0
 10
-394.1822034204658
 20
174.747988807803
 30
0.0
  0
POINT
  5
A1
  8
DEFPOINTS
  6
BYBLOCK
 62
     0
 10
-1060.653632463743
 20
355.8590812370034
 30
0.0
  0
POINT
  5
5B
  8
DEFPOINTS
  6
BYBLOCK
 62
     0
 10
-1012.125061507021
 20
174.747988807803
 30
0.0
  0
POINT
  5
5C
  8
DEFPOINTS
  6
BYBLOCK
 62
     0
 10
-345.6536324637432
 20
355.8590812370034
 30
0.0
  0
SOLID
  5
5D
  8
0
  6
BYBLOCK
 62
     0
 10
-320.1743622529512
 20
450.949012203457
 30
0.0
 11
-322.6972237963922
 21
451.191459607522
 31
0.0
 12
-322.4822213116445
 22
451.9965797078779
 32
0.0
 13
-322.4822213116445
 23
451.9965797078779
 33
0.0
  0
SOLID
  5
A2
  8
0
  6
BYBLOCK
 62
     0
 10
-1086.132902674536
 20
450.949012203457
 30
0.0
 11
-1083.825043615842
 21
451.9965797078779
 31
0.0
 12
-1083.610041131095
 22
451.1914596075221
 32
0.0
 13
-1083.610041131095
 23
451.1914596075221
 33
0.0
  0
LINE
  5
5F
  8
0
  6
BYBLOCK
 62
     0
 10
-345.4918705605541
 20
356.462784878434
 30
0.0
 11
-319.8508384465731
 21
452.1564194863183
 31
0.0
  0
LINE
  5
60
  8
0
  6
BYBLOCK
 62
     0
 10
-1060.815394366932
 20
356.462784878434
 30
0.0
 11
-1086.456426480914
 21
452.1564194863183
 31
0.0
  0
ARC
  5
61
  8
0
  6
BYBLOCK
 62
     0
 10
-703.1536324637432
 20
-978.3490824688698
 30
0.0
 40
1479.718272119776
 50
75.09680184972898
 51
104.9031981502711
  0
ENDBLK
  5
146
  8
0
  0
BLOCK
  8
0
  2
*D3
 70
     1
 10
0.0
 20
0.0
 30
0.0
  3
*D3
  1

  0
LINE
  5
D1
  8
INFO
 62
     0
 10
0.0
 20
400.0625
 30
0.0
 11
0.0
 21
453.8684363101458
 31
0.0
  0
LINE
  5
D2
  8
INFO
 62
     0
 10
1000.0
 20
400.0625
 30
0.0
 11
1000.0
 21
453.8684363101458
 31
0.0
  0
LINE
  5
D3
  8
INFO
 62
     0
 10
0.18
 20
453.6884363101458
 30
0.0
 11
337.91
 21
453.6884363101458
 31
0.0
  0
LINE
  5
D4
  8
INFO
 62
     0
 10
999.8200000000001
 20
453.6884363101458
 30
0.0
 11
662.09
 21
453.6884363101458
 31
0.0
  0
SOLID
  5
D5
  8
INFO
 62
     0
 10
0.18
 20
453.7184363101458
 30
0.0
 11
0.18
 21
453.6584363101458
 31
0.0
 12
0.0
 22
453.6884363101458
 32
0.0
 13
0.0
 23
453.6884363101458
 33
0.0
  0
SOLID
  5
D6
  8
INFO
 62
     0
 10
999.8200000000001
 20
453.6584363101458
 30
0.0
 11
999.8200000000001
 21
453.7184363101458
 31
0.0
 12
1000.0
 22
453.6884363101458
 32
0.0
 13
1000.0
 23
453.6884363101458
 33
0.0
  0
TEXT
  5
D7
  8
INFO
 62
     0
 10
338.0
 20
428.6884363101458
 30
0.0
 40
50.0
  1
1000.0000
  0
POINT
  5
D8
  8
DEFPOINTS
 62
     0
 10
0.0
 20
400.0
 30
0.0
  0
POINT
  5
FE
  8
DEFPOINTS
 62
     0
 10
1000.0
 20
400.0
 30
0.0
  0
POINT
  5
FF
  8
DEFPOINTS
 62
     0
 10
1000.0
 20
453.6884363101458
 30
0.0
  0
ENDBLK
  5
148
  8
0
  0
BLOCK
  8
0
  2
*D4
 70
     1
 10
0.0
 20
0.0
 30
0.0
  3
*D4
  1

  0
LINE
  5
120
  8
INFO
 62
     0
 10
256.0647118819533
 20
-406.4514171686958
 30
0.0
 11
256.0647118819533
 21
-352.64548085855
 31
0.0
  0
LINE
  5
121
  8
INFO
 62
     0
 10
1256.064711881953
 20
-406.4514171686958
 30
0.0
 11
1256.064711881953
 21
-352.64548085855
 31
0.0
  0
LINE
  5
122
  8
INFO
 62
     0
 10
256.2447118819533
 20
-352.82548085855
 30
0.0
 11
593.9747118819533
 21
-352.82548085855
 31
0.0
  0
LINE
  5
123
  8
INFO
 62
     0
 10
1255.884711881953
 20
-352.82548085855
 30
0.0
 11
918.1547118819534
 21
-352.82548085855
 31
0.0
  0
SOLID
  5
124
  8
INFO
 62
     0
 10
256.2447118819533
 20
-352.79548085855
 30
0.0
 11
256.2447118819533
 21
-352.85548085855
 31
0.0
 12
256.0647118819533
 22
-352.82548085855
 32
0.0
 13
256.0647118819533
 23
-352.82548085855
 33
0.0
  0
SOLID
  5
125
  8
INFO
 62
     0
 10
1255.884711881953
 20
-352.85548085855
 30
0.0
 11
1255.884711881953
 21
-352.79548085855
 31
0.0
 12
1256.064711881953
 22
-352.82548085855
 32
0.0
 13
1256.064711881953
 23
-352.82548085855
 33
0.0
  0
TEXT
  5
126
  8
INFO
 62
     0
 10
594.0647118819534
 20
-377.82548085855
 30
0.0
 40
50.0
  1
1000.0000
  0
POINT
  5
127
  8
DEFPOINTS
 62
     0
 10
256.0647118819533
 20
-406.5139171686958
 30
0.0
  0
POINT
  5
128
  8
DEFPOINTS
 62
     0
 10
1256.064711881953
 20
-406.5139171686958
 30
0.0
  0
POINT
  5
14D
  8
DEFPOINTS
 62
     0
 10
1256.064711881953
 20
-352.82548085855
 30
0.0
  0
ENDBLK
  5
14A
  8
0
  0
BLOCK
  8
0
  2
NRE-230
 70
     0
 10
0.0
 20
0.0
 30
0.0
  3
NRE-230
  1

  0
LINE
  5
12C
  8
0
 10
256.0647118819533
 20
-406.5139171686958
 30
0.0
 11
256.0647118819533
 21
-594.0139171686958
 31
0.0
  0
LINE
  5
12D
  8
0
 10
256.0647118819533
 20
-594.0139171686958
 30
0.0
 11
256.0647118819533
 21
-619.0139171686958
 31
0.0
  0
LINE
  5
12E
  8
0
 10
256.0647118819533
 20
-619.0139171686958
 30
0.0
 11
256.0647118819533
 21
-806.5139171686958
 31
0.0
  0
LINE
  5
12F
  8
0
 10
1256.064711881953
 20
-406.5139171686958
 30
0.0
 11
1256.064711881953
 21
-594.0139171686958
 31
0.0
  0
LINE
  5
130
  8
0
 10
1256.064711881953
 20
-594.0139171686958
 30
0.0
 11
1256.064711881953
 21
-619.0139171686958
 31
0.0
  0
LINE
  5
131
  8
0
 10
1256.064711881953
 20
-619.0139171686958
 30
0.0
 11
1256.064711881953
 21
-806.5139171686958
 31
0.0
  0
LINE
  5
132
  8
0
 10
256.0647118819533
 20
-406.5139171686958
 30
0.0
 11
1256.064711881953
 21
-406.5139171686958
 31
0.0
  0
LINE
  5
133
  8
0
 10
256.0647118819533
 20
-806.5139171686958
 30
0.0
 11
1256.064711881953
 21
-806.5139171686958
 31
0.0
  0
POLYLINE
  5
134
  8
0
 66
     1
 10
0.0
 20
0.0
 30
0.0
 40
9.0
 41
9.0
  0
VERTEX
  5
158
  8
0
 10
256.0647118819533
 20
-619.0139171686958
 30
0.0
  0
VERTEX
  5
159
  8
0
 10
356.0647118819533
 20
-619.0139171686958
 30
0.0
  0
SEQEND
  5
157
  8
0
  0
POLYLINE
  5
135
  8
0
 66
     1
 10
0.0
 20
0.0
 30
0.0
 40
9.0
 41
9.0
  0
VERTEX
  5
15B
  8
0
 10
1256.064711881953
 20
-619.0139171686958
 30
0.0
  0
VERTEX
  5
15C
  8
0
 10
1156.064711881953
 20
-619.0139171686958
 30
0.0
  0
VERTEX
  5
15D
  8
0
 10
356.0647118819533
 20
-619.0139171686958
 30
0.0
  0
SEQEND
  5
15A
  8
0
  0
POLYLINE
  5
136
  8
0
 66
     1
 10
0.0
 20
0.0
 30
0.0
 40
9.0
 41
9.0
  0
VERTEX
  5
15F
  8
0
 10
256.0647118819533
 20
-594.0139171686958
 30
0.0
  0
VERTEX
  5
160
  8
0
 10
1256.064711881953
 20
-594.0139171686958
 30
0.0
  0
SEQEND
  5
15E
  8
0
  0
TEXT
  5
137
  8
0
 10
626.2509885934809
 20
-561.087615600029
 30
0.0
 40
50.0
  1
NRE-230
  0
TEXT
  5
138
  8
0
 10
669.9027419611695
 20
-480.9670267447815
 30
0.0
 40
50.0
  1
ChMar
  0
TEXT
  5
139
  8
0
 10
397.5554500775855
 20
-705.7013871977571
 30
0.0
 40
60.0
  1
Bahnübergang
  0
TEXT
  5
13A
  8
0
 62
     2
 10
659.1609434474486
 20
-763.1076712775698
 30
0.0
 40
25.0
  1
DL 05/2009
  0
DIMENSION
  5
13B
  8
INFO
  2
*D4
 10
1256.064711881953
 20
-352.82548085855
 30
0.0
 11
756.0647118819534
 21
-352.82548085855
 31
0.0
 70
    33
  3
STANDARD
 13
256.0647118819533
 23
-406.5139171686958
 33
0.0
 14
1256.064711881953
 24
-406.5139171686958
 34
0.0
1001
ACAD
1000
DSTYLE
1002
{
1070
   140
1040
50.0
1002
}
  0
ENDBLK
  5
14C
  8
0
  0
ENDSEC
  0
SECTION
  2
ENTITIES
  0
INSERT
  5
13E
  8
0
  2
NRE-230
 10
0.0
 20
0.0
 30
0.0
  0
ENDSEC
  0
EOF
