  0
SECTION
  2
HEADER
  9
$ACADVER
  1
AC1009
  9
$DWGCODEPAGE
  3
ansi_1252
  9
$INSBASE
 10
0.0
 20
0.0
 30
0.0
  9
$EXTMIN
 10
0.0
 20
-200.0
 30
0.0
  9
$EXTMAX
 10
900.0
 20
200.0
 30
0.0
  9
$LIMMIN
 10
0.0
 20
0.0
  9
$LIMMAX
 10
420.0
 20
297.0
  9
$ORTHOMODE
 70
     0
  9
$REGENMODE
 70
     1
  9
$FILLMODE
 70
     1
  9
$QTEXTMODE
 70
     0
  9
$MIRRTEXT
 70
     0
  9
$DRAGMODE
 70
     2
  9
$LTSCALE
 40
1.0
  9
$OSMODE
 70
   695
  9
$ATTMODE
 70
     1
  9
$TEXTSIZE
 40
50.0
  9
$TRACEWID
 40
1.0
  9
$TEXTSTYLE
  7
STANDARD
  9
$CLAYER
  8
0
  9
$CELTYPE
  6
BYLAYER
  9
$CECOLOR
 62
   256
  9
$DIMSCALE
 40
1.0
  9
$DIMASZ
 40
30.0
  9
$DIMEXO
 40
0.625
  9
$DIMDLI
 40
3.75
  9
$DIMRND
 40
0.0
  9
$DIMDLE
 40
0.0
  9
$DIMEXE
 40
1.25
  9
$DIMTP
 40
0.0
  9
$DIMTM
 40
0.0
  9
$DIMTXT
 40
30.0
  9
$DIMCEN
 40
2.5
  9
$DIMTSZ
 40
0.0
  9
$DIMTOL
 70
     0
  9
$DIMLIM
 70
     0
  9
$DIMTIH
 70
     0
  9
$DIMTOH
 70
     0
  9
$DIMSE1
 70
     0
  9
$DIMSE2
 70
     0
  9
$DIMTAD
 70
     1
  9
$DIMZIN
 70
     8
  9
$DIMBLK
  1

  9
$DIMASO
 70
     1
  9
$DIMSHO
 70
     1
  9
$DIMPOST
  1

  9
$DIMAPOST
  1

  9
$DIMALT
 70
     0
  9
$DIMALTD
 70
     3
  9
$DIMALTF
 40
0.03937007874016
  9
$DIMLFAC
 40
1.0
  9
$DIMTOFL
 70
     1
  9
$DIMTVP
 40
0.0
  9
$DIMTIX
 70
     0
  9
$DIMSOXD
 70
     0
  9
$DIMSAH
 70
     0
  9
$DIMBLK1
  1

  9
$DIMBLK2
  1

  9
$DIMSTYLE
  2
ISO-25
  9
$DIMCLRD
 70
     0
  9
$DIMCLRE
 70
     0
  9
$DIMCLRT
 70
     0
  9
$DIMTFAC
 40
1.0
  9
$DIMGAP
 40
0.625
  9
$LUNITS
 70
     2
  9
$LUPREC
 70
     4
  9
$SKETCHINC
 40
1.0
  9
$FILLETRAD
 40
0.0
  9
$AUNITS
 70
     0
  9
$AUPREC
 70
     0
  9
$MENU
  1
.
  9
$ELEVATION
 40
0.0
  9
$PELEVATION
 40
0.0
  9
$THICKNESS
 40
0.0
  9
$LIMCHECK
 70
     0
  9
$CHAMFERA
 40
0.0
  9
$CHAMFERB
 40
0.0
  9
$SKPOLY
 70
     0
  9
$TDCREATE
 40
2453353.758792454
  9
$TDUPDATE
 40
2460283.714421123
  9
$TDINDWG
 40
4881704.093741643
  9
$TDUSRTIMER
 40
9763408.071214236
  9
$USRTIMER
 70
     1
  9
$ANGBASE
 50
0.0
  9
$ANGDIR
 70
     0
  9
$PDMODE
 70
     0
  9
$PDSIZE
 40
0.0
  9
$PLINEWID
 40
9.0
  9
$COORDS
 70
     1
  9
$SPLFRAME
 70
     0
  9
$SPLINETYPE
 70
     6
  9
$SPLINESEGS
 70
     8
  9
$ATTDIA
 70
     0
  9
$ATTREQ
 70
     1
  9
$HANDLING
 70
     1
  9
$HANDSEED
  5
1AE
  9
$SURFTAB1
 70
     6
  9
$SURFTAB2
 70
     6
  9
$SURFTYPE
 70
     6
  9
$SURFU
 70
     6
  9
$SURFV
 70
     6
  9
$UCSNAME
  2

  9
$UCSORG
 10
0.0
 20
0.0
 30
0.0
  9
$UCSXDIR
 10
1.0
 20
0.0
 30
0.0
  9
$UCSYDIR
 10
0.0
 20
1.0
 30
0.0
  9
$PUCSNAME
  2

  9
$PUCSORG
 10
0.0
 20
0.0
 30
0.0
  9
$PUCSXDIR
 10
1.0
 20
0.0
 30
0.0
  9
$PUCSYDIR
 10
0.0
 20
1.0
 30
0.0
  9
$USERI1
 70
     0
  9
$USERI2
 70
     0
  9
$USERI3
 70
     0
  9
$USERI4
 70
     0
  9
$USERI5
 70
     0
  9
$USERR1
 40
0.0
  9
$USERR2
 40
0.0
  9
$USERR3
 40
0.0
  9
$USERR4
 40
0.0
  9
$USERR5
 40
0.0
  9
$WORLDVIEW
 70
     1
  9
$SHADEDGE
 70
     3
  9
$SHADEDIF
 70
    70
  9
$TILEMODE
 70
     1
  9
$MAXACTVP
 70
    64
  9
$PLIMCHECK
 70
     0
  9
$PEXTMIN
 10
0.0
 20
0.0
 30
0.0
  9
$PEXTMAX
 10
0.0
 20
0.0
 30
0.0
  9
$PLIMMIN
 10
0.0
 20
0.0
  9
$PLIMMAX
 10
12.0
 20
9.0
  9
$UNITMODE
 70
     0
  9
$VISRETAIN
 70
     1
  9
$PLINEGEN
 70
     0
  9
$PSLTSCALE
 70
     1
  0
ENDSEC
  0
SECTION
  2
TABLES
  0
TABLE
  2
VPORT
 70
     1
  0
VPORT
  2
*ACTIVE
 70
     0
 10
0.0
 20
0.0
 11
1.0
 21
1.0
 12
616.729110431543
 22
-56.95314357180024
 13
0.0
 23
0.0
 14
0.5
 24
0.5
 15
0.5
 25
0.5
 16
0.0
 26
0.0
 36
1.0
 17
0.0
 27
0.0
 37
0.0
 40
1057.873903908984
 41
1.333333333333333
 42
50.0
 43
0.0
 44
0.0
 50
0.0
 51
0.0
 71
    16
 72
   100
 73
     0
 74
     1
 75
     0
 76
     0
 77
     0
 78
     0
  0
ENDTAB
  0
TABLE
  2
LTYPE
 70
     1
  0
LTYPE
  2
CONTINUOUS
 70
     0
  3
CONTINUOUS
 72
    65
 73
     0
 40
0.0
  0
ENDTAB
  0
TABLE
  2
LAYER
 70
     3
  0
LAYER
  2
0
 70
     0
 62
     7
  6
CONTINUOUS
  0
LAYER
  2
INFO
 70
     0
 62
    -3
  6
CONTINUOUS
  0
LAYER
  2
DEFPOINTS
 70
     0
 62
     7
  6
CONTINUOUS
  0
ENDTAB
  0
TABLE
  2
STYLE
 70
     1
  0
STYLE
  2
STANDARD
 70
     0
 40
0.0
 41
1.0
 50
0.0
 71
     0
 42
2.5
  3
txt
  4

  0
ENDTAB
  0
TABLE
  2
VIEW
 70
     0
  0
ENDTAB
  0
TABLE
  2
UCS
 70
     0
  0
ENDTAB
  0
TABLE
  2
APPID
 70
     2
  0
APPID
  2
ACAD
 70
     0
  0
APPID
  2
PROGE_PRINT_SETTINGS
 70
     0
  0
ENDTAB
  0
TABLE
  2
DIMSTYLE
 70
     2
  0
DIMSTYLE
  2
STANDARD
 70
     0
  3

  4

  5

  6

  7

 40
1.0
 41
0.18
 42
0.0625
 43
0.38
 44
0.18
 45
0.0
 46
0.0
 47
0.0
 48
0.0
140
0.18
141
0.09
142
0.0
143
25.4
144
1.0
145
0.0
146
1.0
147
0.09
 71
     0
 72
     0
 73
     1
 74
     1
 75
     0
 76
     0
 77
     0
 78
     0
170
     0
171
     2
172
     0
173
     0
174
     0
175
     0
176
     0
177
     0
178
     0
  0
DIMSTYLE
  2
ISO-25
 70
     0
  3

  4

  5

  6

  7

 40
1.0
 41
2.5
 42
0.625
 43
3.75
 44
1.25
 45
0.0
 46
0.0
 47
0.0
 48
0.0
140
2.5
141
2.5
142
0.0
143
0.03937007874016
144
1.0
145
0.0
146
1.0
147
0.625
 71
     0
 72
     0
 73
     0
 74
     0
 75
     0
 76
     0
 77
     1
 78
     8
170
     0
171
     3
172
     1
173
     0
174
     0
175
     0
176
     0
177
     0
178
     0
  0
ENDTAB
  0
ENDSEC
  0
SECTION
  2
BLOCKS
  0
BLOCK
  8
0
  2
$MODEL_SPACE
 70
     0
 10
0.0
 20
0.0
 30
0.0
  3
$MODEL_SPACE
  1

  0
ENDBLK
  5
21
  8
0
  0
BLOCK
 67
     1
  8
0
  2
$PAPER_SPACE
 70
     0
 10
0.0
 20
0.0
 30
0.0
  3
$PAPER_SPACE
  1

  0
ENDBLK
  5
19C
 67
     1
  8
0
  0
BLOCK
  8
0
  2
*D1
 70
     1
 10
0.0
 20
0.0
 30
0.0
  3
*D1
  1

  0
LINE
  5
EB
  8
INFO
 62
     0
 10
0.0
 20
200.0625
 30
0.0
 11
0.0
 21
276.1237488404876
 31
0.0
  0
LINE
  5
EC
  8
INFO
 62
     0
 10
900.0
 20
200.0625
 30
0.0
 11
900.0
 21
276.1237488404875
 31
0.0
  0
LINE
  5
ED
  8
INFO
 62
     0
 10
30.0
 20
275.9437488404876
 30
0.0
 11
360.21
 21
275.9437488404876
 31
0.0
  0
LINE
  5
EE
  8
INFO
 62
     0
 10
870.0
 20
275.9437488404875
 30
0.0
 11
539.7900000000001
 21
275.9437488404875
 31
0.0
  0
SOLID
  5
EF
  8
INFO
 62
     0
 10
30.0
 20
280.9437488404876
 30
0.0
 11
30.0
 21
270.9437488404876
 31
0.0
 12
0.0
 22
275.9437488404876
 32
0.0
 13
0.0
 23
275.9437488404876
 33
0.0
  0
SOLID
  5
F0
  8
INFO
 62
     0
 10
870.0
 20
270.9437488404875
 30
0.0
 11
870.0
 21
280.9437488404875
 31
0.0
 12
900.0
 22
275.9437488404875
 32
0.0
 13
900.0
 23
275.9437488404875
 33
0.0
  0
TEXT
  5
F1
  8
INFO
 62
     0
 10
360.0
 20
260.9437488404875
 30
0.0
 40
30.0
  1
900.0000
  0
POINT
  5
F2
  8
DEFPOINTS
 62
     0
 10
0.0
 20
200.0
 30
0.0
  0
POINT
  5
122
  8
DEFPOINTS
 62
     0
 10
900.0
 20
200.0
 30
0.0
  0
POINT
  5
123
  8
DEFPOINTS
 62
     0
 10
900.0
 20
275.9437488404875
 30
0.0
  0
ENDBLK
  5
19E
  8
INFO
  0
BLOCK
  8
0
  2
*D2
 70
     1
 10
0.0
 20
0.0
 30
0.0
  3
*D2
  1

  0
POINT
  5
153
  8
DEFPOINTS
  6
BYBLOCK
 62
     0
 10
0.0
 20
200.0
 30
0.0
  0
POINT
  5
154
  8
DEFPOINTS
  6
BYBLOCK
 62
     0
 10
900.0
 20
200.0
 30
0.0
  0
LINE
  5
155
  8
0
  6
BYBLOCK
 62
     0
 10
0.0
 20
200.0625
 30
0.0
 11
0.0
 21
276.1237488404875
 31
0.0
  0
LINE
  5
156
  8
0
  6
BYBLOCK
 62
     0
 10
900.0
 20
200.0625
 30
0.0
 11
900.0
 21
276.1237488404875
 31
0.0
  0
LINE
  5
157
  8
0
  6
BYBLOCK
 62
     0
 10
30.0
 20
275.9437488404875
 30
0.0
 11
359.91
 21
275.9437488404875
 31
0.0
  0
LINE
  5
158
  8
0
  6
BYBLOCK
 62
     0
 10
870.0
 20
275.9437488404875
 30
0.0
 11
540.09
 21
275.9437488404875
 31
0.0
  0
SOLID
  5
159
  8
0
  6
BYBLOCK
 62
     0
 10
0.0
 20
275.9437488404875
 30
0.0
 11
30.0
 21
270.9437488404875
 31
0.0
 12
30.0
 22
280.9437488404875
 32
0.0
 13
30.0
 23
280.9437488404875
 33
0.0
  0
SOLID
  5
15A
  8
0
  6
BYBLOCK
 62
     0
 10
900.0
 20
275.9437488404875
 30
0.0
 11
870.0
 21
270.9437488404875
 31
0.0
 12
870.0
 22
280.9437488404875
 32
0.0
 13
870.0
 23
280.9437488404875
 33
0.0
  0
TEXT
  5
15B
  8
0
  6
BYBLOCK
 62
     0
 10
360.0
 20
260.9437488404875
 30
0.0
 40
30.0
  1
900.0000
  0
ENDBLK
  5
1A0
  8
0
  0
BLOCK
  8
0
  2
*D3
 70
     1
 10
0.0
 20
0.0
 30
0.0
  3
*D3
  1

  0
POINT
  5
17C
  8
DEFPOINTS
  6
BYBLOCK
 62
     0
 10
0.0
 20
200.0
 30
0.0
  0
POINT
  5
17D
  8
DEFPOINTS
  6
BYBLOCK
 62
     0
 10
900.0
 20
200.0
 30
0.0
  0
LINE
  5
17E
  8
0
  6
BYBLOCK
 62
     0
 10
0.0
 20
200.0625
 30
0.0
 11
0.0
 21
276.1237488404875
 31
0.0
  0
LINE
  5
17F
  8
0
  6
BYBLOCK
 62
     0
 10
900.0
 20
200.0625
 30
0.0
 11
900.0
 21
276.1237488404875
 31
0.0
  0
LINE
  5
180
  8
0
  6
BYBLOCK
 62
     0
 10
30.0
 20
275.9437488404875
 30
0.0
 11
359.91
 21
275.9437488404875
 31
0.0
  0
LINE
  5
181
  8
0
  6
BYBLOCK
 62
     0
 10
870.0
 20
275.9437488404875
 30
0.0
 11
540.09
 21
275.9437488404875
 31
0.0
  0
SOLID
  5
182
  8
0
  6
BYBLOCK
 62
     0
 10
0.0
 20
275.9437488404875
 30
0.0
 11
30.0
 21
270.9437488404875
 31
0.0
 12
30.0
 22
280.9437488404875
 32
0.0
 13
30.0
 23
280.9437488404875
 33
0.0
  0
SOLID
  5
183
  8
0
  6
BYBLOCK
 62
     0
 10
900.0
 20
275.9437488404875
 30
0.0
 11
870.0
 21
270.9437488404875
 31
0.0
 12
870.0
 22
280.9437488404875
 32
0.0
 13
870.0
 23
280.9437488404875
 33
0.0
  0
TEXT
  5
184
  8
0
  6
BYBLOCK
 62
     0
 10
360.0
 20
260.9437488404875
 30
0.0
 40
30.0
  1
900.0000
  0
ENDBLK
  5
1A2
  8
0
  0
BLOCK
  8
0
  2
NRE-949
 70
     0
 10
0.0
 20
0.0
 30
0.0
  3
NRE-949
  1

  0
LINE
  5
189
  8
0
 10
0.0
 20
200.0
 30
0.0
 11
0.0
 21
200.0
 31
0.0
  0
LINE
  5
18A
  8
0
 10
0.0
 20
200.0
 30
0.0
 11
0.0
 21
-200.0
 31
0.0
  0
LINE
  5
18B
  8
0
 10
0.0
 20
-200.0
 30
0.0
 11
900.0
 21
-200.0
 31
0.0
  0
LINE
  5
18C
  8
0
 10
900.0
 20
-200.0
 30
0.0
 11
900.0
 21
200.0
 31
0.0
  0
LINE
  5
18D
  8
0
 10
900.0
 20
200.0
 30
0.0
 11
0.0
 21
200.0
 31
0.0
  0
POLYLINE
  5
18E
  8
0
 62
     1
 66
     1
 10
0.0
 20
0.0
 30
0.0
 40
9.0
 41
9.0
  0
VERTEX
  5
1A5
  8
0
 62
     1
 10
0.0
 20
0.0
 30
0.0
 40
0.0
 41
0.0
  0
VERTEX
  5
1A6
  8
0
 62
     1
 10
900.0
 20
0.0
 30
0.0
 40
0.0
 41
0.0
  0
SEQEND
  5
1A7
  8
0
 62
     1
  0
TEXT
  5
18F
  8
0
 62
     2
 10
322.6034182636286
 20
-182.5690777155812
 30
0.0
 40
25.0
  1
DL 12/23
  0
TEXT
  5
190
  8
0
 10
278.9697871590529
 20
-133.5555777836626
 30
0.0
 40
50.0
  1
NRE-949
  0
TEXT
  5
191
  8
0
 10
326.5573354818794
 20
-68.82379321554134
 30
0.0
 40
50.0
  1
DoPol
  0
TEXT
  5
192
  8
0
 10
398.2901438370474
 20
119.031192953693
 30
0.0
 40
50.0
  1
900
  0
DIMENSION
  5
193
  8
INFO
  2
*D3
 10
900.0
 20
275.9437488404875
 30
0.0
 11
450.0
 21
275.9437488404875
 31
0.0
 70
    32
  3
STANDARD
 13
0.0
 23
200.0
 33
0.0
 14
900.0
 24
200.0
 34
0.0
1001
ACAD
1000
DSTYLE
1002
{
1070
    41
1040
30.0
1070
   140
1040
30.0
1070
   272
1070
     0
1002
}
  0
TEXT
  5
194
  8
0
 62
     1
 10
195.8682183715985
 20
38.40808574691829
 30
0.0
 40
30.0
  1
Sommerfeldt, steckbar
  0
ENDBLK
  5
1A4
  8
0
  0
ENDSEC
  0
SECTION
  2
ENTITIES
  0
INSERT
  5
197
  8
0
  2
NRE-949
 10
0.0
 20
0.0
 30
0.0
  0
VIEWPORT
  5
1A9
 67
     1
  8
0
 10
128.5
 20
97.5
 30
0.0
 40
314.226
 41
222.18
 68
     1
 69
     1
1001
ACAD
1000
MVIEW
1002
{
1070
    16
1010
0.0
1020
0.0
1030
0.0
1020
0.0
1030
0.0
1010
0.0
1020
0.0
1030
1.0
1020
0.0
1030
1.0
1040
0.0
1040
222.18
1040
128.5
1040
97.5
1040
50.0
1040
0.0
1040
0.0
1070
     0
1070
   100
1070
     0
1070
     3
1070
     0
1070
     0
1070
     0
1070
     0
1040
0.0
1040
0.0
1040
0.0
1040
10.0
1040
10.0
1040
10.0
1040
10.0
1070
     0
1002
{
1002
}
1002
}
  0
ENDSEC
  0
EOF
