  0
SECTION
  2
HEADER
  9
$ACADVER
  1
AC1009
  9
$DWGCODEPAGE
  3
ansi_1252
  9
$INSBASE
 10
0.0
 20
0.0
 30
0.0
  9
$EXTMIN
 10
-349.8345573287715
 20
-1798.153347073059
 30
0.0
  9
$EXTMAX
 10
9.586396447269863
 20
-1249.338129767
 30
0.0
  9
$LIMMIN
 10
0.0
 20
0.0
  9
$LIMMAX
 10
420.0
 20
297.0
  9
$ORTHOMODE
 70
     0
  9
$REGENMODE
 70
     1
  9
$FILLMODE
 70
     1
  9
$QTEXTMODE
 70
     0
  9
$MIRRTEXT
 70
     0
  9
$DRAGMODE
 70
     2
  9
$LTSCALE
 40
1.0
  9
$OSMODE
 70
    37
  9
$ATTMODE
 70
     1
  9
$TEXTSIZE
 40
40.0
  9
$TRACEWID
 40
1.0
  9
$TEXTSTYLE
  7
STANDARD
  9
$CLAYER
  8
0
  9
$CELTYPE
  6
BYLAYER
  9
$CECOLOR
 62
   256
  9
$DIMSCALE
 40
1.0
  9
$DIMASZ
 40
50.0
  9
$DIMEXO
 40
0.625
  9
$DIMDLI
 40
3.75
  9
$DIMRND
 40
0.0
  9
$DIMDLE
 40
0.0
  9
$DIMEXE
 40
1.25
  9
$DIMTP
 40
0.0
  9
$DIMTM
 40
0.0
  9
$DIMTXT
 40
50.0
  9
$DIMCEN
 40
2.5
  9
$DIMTSZ
 40
0.0
  9
$DIMTOL
 70
     0
  9
$DIMLIM
 70
     0
  9
$DIMTIH
 70
     0
  9
$DIMTOH
 70
     0
  9
$DIMSE1
 70
     0
  9
$DIMSE2
 70
     0
  9
$DIMTAD
 70
     1
  9
$DIMZIN
 70
     8
  9
$DIMBLK
  1

  9
$DIMASO
 70
     1
  9
$DIMSHO
 70
     1
  9
$DIMPOST
  1

  9
$DIMAPOST
  1

  9
$DIMALT
 70
     0
  9
$DIMALTD
 70
     3
  9
$DIMALTF
 40
0.03937007874016
  9
$DIMLFAC
 40
1.0
  9
$DIMTOFL
 70
     1
  9
$DIMTVP
 40
0.0
  9
$DIMTIX
 70
     0
  9
$DIMSOXD
 70
     0
  9
$DIMSAH
 70
     0
  9
$DIMBLK1
  1

  9
$DIMBLK2
  1

  9
$DIMSTYLE
  2
ISO-25
  9
$DIMCLRD
 70
     0
  9
$DIMCLRE
 70
     0
  9
$DIMCLRT
 70
     0
  9
$DIMTFAC
 40
1.0
  9
$DIMGAP
 40
0.625
  9
$LUNITS
 70
     2
  9
$LUPREC
 70
     4
  9
$SKETCHINC
 40
1.0
  9
$FILLETRAD
 40
0.0
  9
$AUNITS
 70
     0
  9
$AUPREC
 70
     0
  9
$MENU
  1
.
  9
$ELEVATION
 40
0.0
  9
$PELEVATION
 40
0.0
  9
$THICKNESS
 40
0.0
  9
$LIMCHECK
 70
     0
  9
$CHAMFERA
 40
0.0
  9
$CHAMFERB
 40
0.0
  9
$SKPOLY
 70
     0
  9
$TDCREATE
 40
2453353.758792488
  9
$TDUPDATE
 40
2459653.110662222
  9
$TDINDWG
 40
4881724.058228148
  9
$TDUSRTIMER
 40
4881724.058228148
  9
$USRTIMER
 70
     1
  9
$ANGBASE
 50
0.0
  9
$ANGDIR
 70
     0
  9
$PDMODE
 70
     0
  9
$PDSIZE
 40
0.0
  9
$PLINEWID
 40
9.0
  9
$COORDS
 70
     1
  9
$SPLFRAME
 70
     0
  9
$SPLINETYPE
 70
     6
  9
$SPLINESEGS
 70
     8
  9
$ATTDIA
 70
     0
  9
$ATTREQ
 70
     1
  9
$HANDLING
 70
     1
  9
$HANDSEED
  5
B70
  9
$SURFTAB1
 70
     6
  9
$SURFTAB2
 70
     6
  9
$SURFTYPE
 70
     6
  9
$SURFU
 70
     6
  9
$SURFV
 70
     6
  9
$UCSNAME
  2

  9
$UCSORG
 10
0.0
 20
0.0
 30
0.0
  9
$UCSXDIR
 10
1.0
 20
0.0
 30
0.0
  9
$UCSYDIR
 10
0.0
 20
1.0
 30
0.0
  9
$PUCSNAME
  2

  9
$PUCSORG
 10
0.0
 20
0.0
 30
0.0
  9
$PUCSXDIR
 10
1.0
 20
0.0
 30
0.0
  9
$PUCSYDIR
 10
0.0
 20
1.0
 30
0.0
  9
$USERI1
 70
     0
  9
$USERI2
 70
     0
  9
$USERI3
 70
     0
  9
$USERI4
 70
     0
  9
$USERI5
 70
     0
  9
$USERR1
 40
0.0
  9
$USERR2
 40
0.0
  9
$USERR3
 40
0.0
  9
$USERR4
 40
0.0
  9
$USERR5
 40
0.0
  9
$WORLDVIEW
 70
     1
  9
$SHADEDGE
 70
     3
  9
$SHADEDIF
 70
    70
  9
$TILEMODE
 70
     1
  9
$MAXACTVP
 70
    64
  9
$PLIMCHECK
 70
     0
  9
$PEXTMIN
 10
1.000000000000000E+20
 20
1.000000000000000E+20
 30
1.000000000000000E+20
  9
$PEXTMAX
 10
-1.000000000000000E+20
 20
-1.000000000000000E+20
 30
-1.000000000000000E+20
  9
$PLIMMIN
 10
0.0
 20
0.0
  9
$PLIMMAX
 10
420.0
 20
297.0
  9
$UNITMODE
 70
     0
  9
$VISRETAIN
 70
     1
  9
$PLINEGEN
 70
     0
  9
$PSLTSCALE
 70
     1
  0
ENDSEC
  0
SECTION
  2
TABLES
  0
TABLE
  2
VPORT
 70
     1
  0
VPORT
  2
*ACTIVE
 70
     0
 10
0.0
 20
0.0
 11
1.0
 21
1.0
 12
-29.98216686619176
 22
-1572.505118358835
 13
0.0
 23
0.0
 14
10.0
 24
10.0
 15
10.0
 25
10.0
 16
0.0
 26
0.0
 36
1.0
 17
0.0
 27
0.0
 37
0.0
 40
1047.272455022725
 41
1.664827586206896
 42
50.0
 43
0.0
 44
0.0
 50
0.0
 51
0.0
 71
    16
 72
  1000
 73
     1
 74
     1
 75
     0
 76
     0
 77
     0
 78
     0
  0
ENDTAB
  0
TABLE
  2
LTYPE
 70
     1
  0
LTYPE
  2
CONTINUOUS
 70
     0
  3
Solid line
 72
    65
 73
     0
 40
0.0
  0
ENDTAB
  0
TABLE
  2
LAYER
 70
     3
  0
LAYER
  2
0
 70
     0
 62
     7
  6
CONTINUOUS
  0
LAYER
  2
DEFPOINTS
 70
     0
 62
     7
  6
CONTINUOUS
  0
LAYER
  2
MASSE
 70
     0
 62
     3
  6
CONTINUOUS
  0
ENDTAB
  0
TABLE
  2
STYLE
 70
     1
  0
STYLE
  2
STANDARD
 70
     0
 40
0.0
 41
1.0
 50
0.0
 71
     0
 42
2.5
  3
txt
  4

  0
ENDTAB
  0
TABLE
  2
VIEW
 70
     0
  0
ENDTAB
  0
TABLE
  2
UCS
 70
     0
  0
ENDTAB
  0
TABLE
  2
APPID
 70
     1
  0
APPID
  2
ACAD
 70
     0
  0
ENDTAB
  0
TABLE
  2
DIMSTYLE
 70
     2
  0
DIMSTYLE
  2
STANDARD
 70
     0
  3

  4

  5

  6

  7

 40
1.0
 41
0.18
 42
0.0625
 43
0.38
 44
0.18
 45
0.0
 46
0.0
 47
0.0
 48
0.0
140
0.18
141
0.09
142
0.0
143
25.4
144
1.0
145
0.0
146
1.0
147
0.09
 71
     0
 72
     0
 73
     1
 74
     1
 75
     0
 76
     0
 77
     0
 78
     0
170
     0
171
     2
172
     0
173
     0
174
     0
175
     0
176
     0
177
     0
178
     0
  0
DIMSTYLE
  2
ISO-25
 70
     0
  3

  4

  5

  6

  7

 40
1.0
 41
2.5
 42
0.625
 43
3.75
 44
1.25
 45
0.0
 46
0.0
 47
0.0
 48
0.0
140
2.5
141
2.5
142
0.0
143
0.03937007874016
144
1.0
145
0.0
146
1.0
147
0.625
 71
     0
 72
     0
 73
     0
 74
     0
 75
     0
 76
     0
 77
     1
 78
     8
170
     0
171
     3
172
     1
173
     0
174
     0
175
     0
176
     0
177
     0
178
     0
  0
ENDTAB
  0
ENDSEC
  0
SECTION
  2
BLOCKS
  0
BLOCK
  8
0
  2
$MODEL_SPACE
 70
     0
 10
0.0
 20
0.0
 30
0.0
  3
$MODEL_SPACE
  1

  0
ENDBLK
  5
21
  8
0
  0
BLOCK
 67
     1
  8
0
  2
$PAPER_SPACE
 70
     0
 10
0.0
 20
0.0
 30
0.0
  3
$PAPER_SPACE
  1

  0
ENDBLK
  5
76
 67
     1
  8
0
  0
BLOCK
  8
0
  2
*D1
 70
     1
 10
0.0
 20
0.0
 30
0.0
  3
*D1
  1

  0
POINT
  5
A0
  8
DEFPOINTS
  6
BYBLOCK
 62
     0
 10
2397.0
 20
-200.0
 30
0.0
  0
POINT
  5
A1
  8
DEFPOINTS
  6
BYBLOCK
 62
     0
 10
0.0
 20
240.9999999999999
 30
0.0
  0
LINE
  5
A2
  8
0
  6
BYBLOCK
 62
     0
 10
2397.0
 20
-200.625
 30
0.0
 11
2397.0
 21
-344.8288321771186
 31
0.0
  0
LINE
  5
A3
  8
0
  6
BYBLOCK
 62
     0
 10
0.0
 20
240.3749999999999
 30
0.0
 11
0.0
 21
-344.8288321771186
 31
0.0
  0
LINE
  5
A4
  8
0
  6
BYBLOCK
 62
     0
 10
2347.0
 20
-343.5788321771186
 30
0.0
 11
50.0
 21
-343.5788321771186
 31
0.0
  0
SOLID
  5
A5
  8
0
  6
BYBLOCK
 62
     0
 10
2397.0
 20
-343.5788321771186
 30
0.0
 11
2347.0
 21
-335.2454988437836
 31
0.0
 12
2347.0
 22
-351.9121655104535
 32
0.0
 13
2347.0
 23
-351.9121655104535
 33
0.0
  0
SOLID
  5
A6
  8
0
  6
BYBLOCK
 62
     0
 10
0.0
 20
-343.5788321771186
 30
0.0
 11
50.0
 21
-335.2454988437836
 31
0.0
 12
50.0
 22
-351.9121655104535
 32
0.0
 13
50.0
 23
-351.9121655104535
 33
0.0
  0
TEXT
  5
A7
  8
0
  6
BYBLOCK
 62
     0
 10
1106.75
 20
-342.9538321771186
 30
0.0
 40
50.0
  1
2397
  0
ENDBLK
  5
AB5
  8
0
  0
BLOCK
  8
0
  2
*D2
 70
     1
 10
0.0
 20
0.0
 30
0.0
  3
*D2
  1

  0
POINT
  5
B6
  8
DEFPOINTS
  6
BYBLOCK
 62
     0
 10
2397.0
 20
-272.1019160885593
 30
0.0
  0
POINT
  5
B7
  8
DEFPOINTS
  6
BYBLOCK
 62
     0
 10
0.0
 20
168.8980839114406
 30
0.0
  0
LINE
  5
B8
  8
0
  6
BYBLOCK
 62
     0
 10
2397.0
 20
-272.7269160885593
 30
0.0
 11
2397.0
 21
-416.9307482656778
 31
0.0
  0
LINE
  5
B9
  8
0
  6
BYBLOCK
 62
     0
 10
0.0
 20
168.2730839114406
 30
0.0
 11
0.0
 21
-416.9307482656778
 31
0.0
  0
LINE
  5
BA
  8
0
  6
BYBLOCK
 62
     0
 10
2347.0
 20
-415.6807482656778
 30
0.0
 11
50.0
 21
-415.6807482656778
 31
0.0
  0
SOLID
  5
BB
  8
0
  6
BYBLOCK
 62
     0
 10
2397.0
 20
-415.6807482656778
 30
0.0
 11
2347.0
 21
-407.3474149323429
 31
0.0
 12
2347.0
 22
-424.0140815990128
 32
0.0
 13
2347.0
 23
-424.0140815990128
 33
0.0
  0
SOLID
  5
BC
  8
0
  6
BYBLOCK
 62
     0
 10
0.0
 20
-415.6807482656778
 30
0.0
 11
50.0
 21
-407.3474149323429
 31
0.0
 12
50.0
 22
-424.0140815990128
 32
0.0
 13
50.0
 23
-424.0140815990128
 33
0.0
  0
TEXT
  5
BD
  8
0
  6
BYBLOCK
 62
     0
 10
1106.75
 20
-415.0557482656778
 30
0.0
 40
50.0
  1
2397
  0
ENDBLK
  5
AB7
  8
0
  0
BLOCK
  8
0
  2
*D3
 70
     1
 10
0.0
 20
0.0
 30
0.0
  3
*D3
  1

  0
POINT
  5
C3
  8
DEFPOINTS
  6
BYBLOCK
 62
     0
 10
1462.754592902494
 20
440.9999999999999
 30
0.0
  0
POINT
  5
C4
  8
DEFPOINTS
  6
BYBLOCK
 62
     0
 10
2397.0
 20
0.0
 30
0.0
  0
LINE
  5
C5
  8
0
  6
BYBLOCK
 62
     0
 10
1463.379592902494
 20
440.9999999999999
 30
0.0
 11
2513.35658668357
 21
440.9999999999999
 31
0.0
  0
LINE
  5
C6
  8
0
  6
BYBLOCK
 62
     0
 10
2397.625
 20
0.0
 30
0.0
 11
2513.35658668357
 21
0.0
 31
0.0
  0
LINE
  5
C7
  8
0
  6
BYBLOCK
 62
     0
 10
2512.10658668357
 20
390.9999999999999
 30
0.0
 11
2512.10658668357
 21
50.0
 31
0.0
  0
SOLID
  5
C8
  8
0
  6
BYBLOCK
 62
     0
 10
2512.10658668357
 20
440.9999999999999
 30
0.0
 11
2503.773253350235
 21
390.9999999999999
 31
0.0
 12
2520.439920016906
 22
390.9999999999999
 32
0.0
 13
2520.439920016906
 23
390.9999999999999
 33
0.0
  0
SOLID
  5
C9
  8
0
  6
BYBLOCK
 62
     0
 10
2512.10658668357
 20
0.0
 30
0.0
 11
2503.773253350235
 21
50.0
 31
0.0
 12
2520.439920016906
 22
50.0
 32
0.0
 13
2520.439920016906
 23
50.0
 33
0.0
  0
TEXT
  5
CA
  8
0
  6
BYBLOCK
 62
     0
 10
2511.48158668357
 20
162.25
 30
0.0
 40
50.0
  1
441
 50
90.0
  0
ENDBLK
  5
AB9
  8
0
  0
BLOCK
  8
0
  2
*D4
 70
     1
 10
0.0
 20
0.0
 30
0.0
  3
*D4
  1

  0
POINT
  5
CE
  8
DEFPOINTS
  6
BYBLOCK
 62
     0
 10
1520.620386244279
 20
440.9999999999999
 30
0.0
  0
POINT
  5
CF
  8
DEFPOINTS
  6
BYBLOCK
 62
     0
 10
2454.865793341785
 20
0.0
 30
0.0
  0
LINE
  5
D0
  8
0
  6
BYBLOCK
 62
     0
 10
1521.245386244279
 20
440.9999999999999
 30
0.0
 11
2571.222380025356
 21
440.9999999999999
 31
0.0
  0
LINE
  5
D1
  8
0
  6
BYBLOCK
 62
     0
 10
2455.490793341785
 20
0.0
 30
0.0
 11
2571.222380025356
 21
0.0
 31
0.0
  0
LINE
  5
D2
  8
0
  6
BYBLOCK
 62
     0
 10
2569.972380025356
 20
390.9999999999999
 30
0.0
 11
2569.972380025356
 21
50.0
 31
0.0
  0
SOLID
  5
D3
  8
0
  6
BYBLOCK
 62
     0
 10
2569.972380025356
 20
440.9999999999999
 30
0.0
 11
2561.63904669202
 21
390.9999999999999
 31
0.0
 12
2578.305713358691
 22
390.9999999999999
 32
0.0
 13
2578.305713358691
 23
390.9999999999999
 33
0.0
  0
SOLID
  5
D4
  8
0
  6
BYBLOCK
 62
     0
 10
2569.972380025356
 20
0.0
 30
0.0
 11
2561.63904669202
 21
50.0
 31
0.0
 12
2578.305713358691
 22
50.0
 32
0.0
 13
2578.305713358691
 23
50.0
 33
0.0
  0
TEXT
  5
D5
  8
0
  6
BYBLOCK
 62
     0
 10
2569.347380025356
 20
162.25
 30
0.0
 40
50.0
  1
441
 50
90.0
  0
ENDBLK
  5
ABB
  8
0
  0
BLOCK
  8
0
  2
*D5
 70
     1
 10
0.0
 20
0.0
 30
0.0
  3
*D5
  1

  0
POINT
  5
E7
  8
DEFPOINTS
  6
BYBLOCK
 62
     0
 10
0.0000000000002274
 20
640.9999999999999
 30
0.0
  0
POINT
  5
E8
  8
DEFPOINTS
  6
BYBLOCK
 62
     0
 10
0.0
 20
240.9999999999999
 30
0.0
  0
LINE
  5
E9
  8
0
  6
BYBLOCK
 62
     0
 10
-0.6249999999997726
 20
640.9999999999999
 30
0.0
 11
-126.1503725642957
 21
640.9999999999999
 31
0.0
  0
LINE
  5
EA
  8
0
  6
BYBLOCK
 62
     0
 10
-0.625
 20
240.9999999999999
 30
0.0
 11
-126.1503725642957
 21
240.9999999999999
 31
0.0
  0
LINE
  5
EB
  8
0
  6
BYBLOCK
 62
     0
 10
-124.9003725642957
 20
590.9999999999999
 30
0.0
 11
-124.9003725642957
 21
290.9999999999999
 31
0.0
  0
SOLID
  5
EC
  8
0
  6
BYBLOCK
 62
     0
 10
-124.9003725642957
 20
640.9999999999999
 30
0.0
 11
-133.2337058976307
 21
590.9999999999999
 31
0.0
 12
-116.5670392309607
 22
590.9999999999999
 32
0.0
 13
-116.5670392309607
 23
590.9999999999999
 33
0.0
  0
SOLID
  5
ED
  8
0
  6
BYBLOCK
 62
     0
 10
-124.9003725642957
 20
240.9999999999999
 30
0.0
 11
-133.2337058976307
 21
290.9999999999999
 31
0.0
 12
-116.5670392309607
 22
290.9999999999999
 32
0.0
 13
-116.5670392309607
 23
290.9999999999999
 33
0.0
  0
TEXT
  5
EE
  8
0
  6
BYBLOCK
 62
     0
 10
-125.5253725642957
 20
382.7499999999998
 30
0.0
 40
50.0
  1
400
 50
90.0
  0
ENDBLK
  5
ABD
  8
0
  0
BLOCK
  8
0
  2
*D6
 70
     1
 10
0.0
 20
0.0
 30
0.0
  3
*D6
  1

  0
POINT
  5
F2
  8
DEFPOINTS
  6
BYBLOCK
 62
     0
 10
-63.38768628214772
 20
640.9999999999999
 30
0.0
  0
POINT
  5
F3
  8
DEFPOINTS
  6
BYBLOCK
 62
     0
 10
-63.38768628214795
 20
240.9999999999999
 30
0.0
  0
LINE
  5
F4
  8
0
  6
BYBLOCK
 62
     0
 10
-64.01268628214771
 20
640.9999999999999
 30
0.0
 11
-189.5380588464436
 21
640.9999999999999
 31
0.0
  0
LINE
  5
F5
  8
0
  6
BYBLOCK
 62
     0
 10
-64.01268628214794
 20
240.9999999999999
 30
0.0
 11
-189.5380588464436
 21
240.9999999999999
 31
0.0
  0
LINE
  5
F6
  8
0
  6
BYBLOCK
 62
     0
 10
-188.2880588464436
 20
590.9999999999999
 30
0.0
 11
-188.2880588464436
 21
290.9999999999999
 31
0.0
  0
SOLID
  5
F7
  8
0
  6
BYBLOCK
 62
     0
 10
-188.2880588464436
 20
640.9999999999999
 30
0.0
 11
-196.6213921797786
 21
590.9999999999999
 31
0.0
 12
-179.9547255131086
 22
590.9999999999999
 32
0.0
 13
-179.9547255131086
 23
590.9999999999999
 33
0.0
  0
SOLID
  5
F8
  8
0
  6
BYBLOCK
 62
     0
 10
-188.2880588464436
 20
240.9999999999999
 30
0.0
 11
-196.6213921797786
 21
290.9999999999999
 31
0.0
 12
-179.9547255131086
 22
290.9999999999999
 32
0.0
 13
-179.9547255131086
 23
290.9999999999999
 33
0.0
  0
TEXT
  5
F9
  8
0
  6
BYBLOCK
 62
     0
 10
-188.9130588464437
 20
382.7499999999999
 30
0.0
 40
50.0
  1
400
 50
90.0
  0
ENDBLK
  5
ABF
  8
0
  0
BLOCK
  8
0
  2
*D7
 70
     1
 10
0.0
 20
0.0
 30
0.0
  3
*D7
  1

  0
POINT
  5
FF
  8
DEFPOINTS
  6
BYBLOCK
 62
     0
 10
-63.38768628214772
 20
640.9999999999999
 30
0.0
  0
POINT
  5
100
  8
DEFPOINTS
  6
BYBLOCK
 62
     0
 10
-63.38768628214795
 20
240.9999999999999
 30
0.0
  0
LINE
  5
101
  8
0
  6
BYBLOCK
 62
     0
 10
-64.01268628214771
 20
640.9999999999999
 30
0.0
 11
-189.5380588464436
 21
640.9999999999999
 31
0.0
  0
LINE
  5
102
  8
0
  6
BYBLOCK
 62
     0
 10
-64.01268628214794
 20
240.9999999999999
 30
0.0
 11
-189.5380588464436
 21
240.9999999999999
 31
0.0
  0
LINE
  5
103
  8
0
  6
BYBLOCK
 62
     0
 10
-188.2880588464436
 20
590.9999999999999
 30
0.0
 11
-188.2880588464436
 21
290.9999999999999
 31
0.0
  0
SOLID
  5
104
  8
0
  6
BYBLOCK
 62
     0
 10
-188.2880588464436
 20
640.9999999999999
 30
0.0
 11
-196.6213921797786
 21
590.9999999999999
 31
0.0
 12
-179.9547255131086
 22
590.9999999999999
 32
0.0
 13
-179.9547255131086
 23
590.9999999999999
 33
0.0
  0
SOLID
  5
105
  8
0
  6
BYBLOCK
 62
     0
 10
-188.2880588464436
 20
240.9999999999999
 30
0.0
 11
-196.6213921797786
 21
290.9999999999999
 31
0.0
 12
-179.9547255131086
 22
290.9999999999999
 32
0.0
 13
-179.9547255131086
 23
290.9999999999999
 33
0.0
  0
TEXT
  5
106
  8
0
  6
BYBLOCK
 62
     0
 10
-188.9130588464437
 20
382.7499999999999
 30
0.0
 40
50.0
  1
400
 50
90.0
  0
ENDBLK
  5
AC1
  8
0
  0
BLOCK
  8
0
  2
*D8
 70
     1
 10
0.0
 20
0.0
 30
0.0
  3
*D8
  1

  0
POINT
  5
10B
  8
DEFPOINTS
  6
BYBLOCK
 62
     0
 10
2397.0
 20
-272.1019160885593
 30
0.0
  0
POINT
  5
10C
  8
DEFPOINTS
  6
BYBLOCK
 62
     0
 10
0.0
 20
168.8980839114406
 30
0.0
  0
LINE
  5
10D
  8
0
  6
BYBLOCK
 62
     0
 10
2397.0
 20
-272.7269160885593
 30
0.0
 11
2397.0
 21
-416.9307482656778
 31
0.0
  0
LINE
  5
10E
  8
0
  6
BYBLOCK
 62
     0
 10
0.0
 20
168.2730839114406
 30
0.0
 11
0.0
 21
-416.9307482656778
 31
0.0
  0
LINE
  5
10F
  8
0
  6
BYBLOCK
 62
     0
 10
2347.0
 20
-415.6807482656778
 30
0.0
 11
50.0
 21
-415.6807482656778
 31
0.0
  0
SOLID
  5
110
  8
0
  6
BYBLOCK
 62
     0
 10
2397.0
 20
-415.6807482656778
 30
0.0
 11
2347.0
 21
-407.3474149323429
 31
0.0
 12
2347.0
 22
-424.0140815990128
 32
0.0
 13
2347.0
 23
-424.0140815990128
 33
0.0
  0
SOLID
  5
111
  8
0
  6
BYBLOCK
 62
     0
 10
0.0
 20
-415.6807482656778
 30
0.0
 11
50.0
 21
-407.3474149323429
 31
0.0
 12
50.0
 22
-424.0140815990128
 32
0.0
 13
50.0
 23
-424.0140815990128
 33
0.0
  0
TEXT
  5
112
  8
0
  6
BYBLOCK
 62
     0
 10
1106.75
 20
-415.0557482656778
 30
0.0
 40
50.0
  1
2397
  0
ENDBLK
  5
AC3
  8
0
  0
BLOCK
  8
0
  2
*D9
 70
     1
 10
0.0
 20
0.0
 30
0.0
  3
*D9
  1

  0
POINT
  5
117
  8
DEFPOINTS
  6
BYBLOCK
 62
     0
 10
1520.620386244279
 20
440.9999999999999
 30
0.0
  0
POINT
  5
118
  8
DEFPOINTS
  6
BYBLOCK
 62
     0
 10
2454.865793341785
 20
0.0
 30
0.0
  0
LINE
  5
119
  8
0
  6
BYBLOCK
 62
     0
 10
1521.245386244279
 20
440.9999999999999
 30
0.0
 11
2571.222380025356
 21
440.9999999999999
 31
0.0
  0
LINE
  5
11A
  8
0
  6
BYBLOCK
 62
     0
 10
2455.490793341785
 20
0.0
 30
0.0
 11
2571.222380025356
 21
0.0
 31
0.0
  0
LINE
  5
11B
  8
0
  6
BYBLOCK
 62
     0
 10
2569.972380025356
 20
390.9999999999999
 30
0.0
 11
2569.972380025356
 21
50.0
 31
0.0
  0
SOLID
  5
11C
  8
0
  6
BYBLOCK
 62
     0
 10
2569.972380025356
 20
440.9999999999999
 30
0.0
 11
2561.63904669202
 21
390.9999999999999
 31
0.0
 12
2578.305713358691
 22
390.9999999999999
 32
0.0
 13
2578.305713358691
 23
390.9999999999999
 33
0.0
  0
SOLID
  5
11D
  8
0
  6
BYBLOCK
 62
     0
 10
2569.972380025356
 20
0.0
 30
0.0
 11
2561.63904669202
 21
50.0
 31
0.0
 12
2578.305713358691
 22
50.0
 32
0.0
 13
2578.305713358691
 23
50.0
 33
0.0
  0
TEXT
  5
11E
  8
0
  6
BYBLOCK
 62
     0
 10
2569.347380025356
 20
162.25
 30
0.0
 40
50.0
  1
441
 50
90.0
  0
ENDBLK
  5
AC5
  8
0
  0
BLOCK
  8
0
  2
*D10
 70
     1
 10
0.0
 20
0.0
 30
0.0
  3
*D10
  1

  0
TEXT
  5
16A
  8
0
  6
BYBLOCK
 62
     0
 10
1471.416389793252
 20
-2315.555936334913
 30
0.0
 40
49.99999999999999
  1
150\U+00B0
 50
285.0
 41
0.9999999999999999
  0
POINT
  5
16B
  8
DEFPOINTS
  6
BYBLOCK
 62
     0
 10
1978.588449197011
 20
-2252.905382358059
 30
0.0
  0
POINT
  5
16C
  8
DEFPOINTS
  6
BYBLOCK
 62
     0
 10
1978.588449197011
 20
-2252.905382358059
 30
0.0
  0
POINT
  5
16D
  8
DEFPOINTS
  6
BYBLOCK
 62
     0
 10
1978.588449197011
 20
-1672.905382358059
 30
0.0
  0
POINT
  5
16E
  8
DEFPOINTS
  6
BYBLOCK
 62
     0
 10
1688.588449197011
 20
-1750.610648163085
 30
0.0
  0
SOLID
  5
16F
  8
0
  6
BYBLOCK
 62
     0
 10
1725.223075644143
 20
-1814.063682485823
 30
0.0
 11
1687.725576070435
 21
-1848.172068114057
 31
0.0
 12
1678.690288816613
 22
-1834.167020380514
 32
0.0
 13
1678.690288816613
 23
-1834.167020380514
 33
0.0
  0
SOLID
  5
170
  8
0
  6
BYBLOCK
 62
     0
 10
1978.588449197011
 20
-2759.636129463796
 30
0.0
 11
1928.238204748138
 21
-2765.492521559896
 31
0.0
 12
1929.060469173667
 22
-2748.846150814524
 32
0.0
 13
1929.060469173667
 23
-2748.846150814524
 33
0.0
  0
LINE
  5
171
  8
0
  6
BYBLOCK
 62
     0
 10
1978.588449197011
 20
-2253.530382358059
 30
0.0
 11
1978.588449197011
 21
-2760.261129463796
 31
0.0
  0
ARC
  5
172
  8
0
  6
BYBLOCK
 62
     0
 10
1978.588449197011
 20
-2252.905382358059
 30
0.0
 40
506.7307471057368
 50
125.6557697147599
 51
264.3442302852401
  0
ENDBLK
  5
AC7
  8
0
  0
BLOCK
  8
0
  2
*D11
 70
     1
 10
0.0
 20
0.0
 30
0.0
  3
*D11
  1

  0
TEXT
  5
177
  8
0
  6
BYBLOCK
 62
     0
 10
1692.088781141449
 20
-1864.67340093421
 30
0.0
 40
50.0
  1
60\U+00B0
 50
30.00000000000003
  0
POINT
  5
178
  8
DEFPOINTS
  6
BYBLOCK
 62
     0
 10
1978.588449197011
 20
-2252.905382358059
 30
0.0
  0
POINT
  5
179
  8
DEFPOINTS
  6
BYBLOCK
 62
     0
 10
1978.588449197011
 20
-2252.905382358059
 30
0.0
  0
POINT
  5
17A
  8
DEFPOINTS
  6
BYBLOCK
 62
     0
 10
1978.588449197011
 20
-1672.905382358059
 30
0.0
  0
POINT
  5
17B
  8
DEFPOINTS
  6
BYBLOCK
 62
     0
 10
1476.293715002036
 20
-1962.905382358059
 30
0.0
  0
SOLID
  5
17C
  8
0
  6
BYBLOCK
 62
     0
 10
1978.588449197011
 20
-1774.061789855657
 30
0.0
 11
1929.091716443798
 21
-1784.994213704077
 31
0.0
 12
1928.221564533674
 22
-1768.350277467982
 32
0.0
 13
1928.221564533674
 23
-1768.350277467982
 33
0.0
  0
SOLID
  5
17D
  8
0
  6
BYBLOCK
 62
     0
 10
1563.897733650526
 20
-2013.483586106858
 30
0.0
 11
1584.134861160438
 21
-1967.00882828509
 31
0.0
 12
1598.113856804803
 22
-1976.084370062457
 32
0.0
 13
1598.113856804803
 23
-1976.084370062457
 33
0.0
  0
ARC
  5
17E
  8
0
  6
BYBLOCK
 62
     0
 10
1978.588449197011
 20
-2252.905382358059
 30
0.0
 40
478.8435925024026
 50
95.9854451206202
 51
144.0145548793798
  0
ENDBLK
  5
AC9
  8
0
  0
BLOCK
  8
0
  2
*D12
 70
     1
 10
0.0
 20
0.0
 30
0.0
  3
*D12
  1

  0
POINT
  5
185
  8
DEFPOINTS
  6
BYBLOCK
 62
     0
 10
1015.897294229662
 20
-1504.905382276695
 30
0.0
  0
POINT
  5
186
  8
DEFPOINTS
  6
BYBLOCK
 62
     0
 10
1978.588449197011
 20
-1172.905382358059
 30
0.0
  0
LINE
  5
187
  8
0
  6
BYBLOCK
 62
     0
 10
1015.897294229662
 20
-1504.280382276695
 30
0.0
 11
1015.897294229662
 21
-1106.396404860402
 31
0.0
  0
LINE
  5
188
  8
0
  6
BYBLOCK
 62
     0
 10
1978.588449197011
 20
-1172.280382358059
 30
0.0
 11
1978.588449197011
 21
-1106.396404860402
 31
0.0
  0
LINE
  5
189
  8
0
  6
BYBLOCK
 62
     0
 10
1065.897294229662
 20
-1107.646404860402
 30
0.0
 11
1928.588449197011
 21
-1107.646404860402
 31
0.0
  0
SOLID
  5
18A
  8
0
  6
BYBLOCK
 62
     0
 10
1015.897294229662
 20
-1107.646404860402
 30
0.0
 11
1065.897294229662
 21
-1115.979738193737
 31
0.0
 12
1065.897294229662
 22
-1099.313071527067
 32
0.0
 13
1065.897294229662
 23
-1099.313071527067
 33
0.0
  0
SOLID
  5
18B
  8
0
  6
BYBLOCK
 62
     0
 10
1978.588449197011
 20
-1107.646404860402
 30
0.0
 11
1928.588449197011
 21
-1115.979738193737
 31
0.0
 12
1928.588449197011
 22
-1099.313071527067
 32
0.0
 13
1928.588449197011
 23
-1099.313071527067
 33
0.0
  0
TEXT
  5
18C
  8
0
  6
BYBLOCK
 62
     0
 10
1392.992871713336
 20
-1098.521404860402
 30
0.0
 40
50.0
  1
962,7
  0
ENDBLK
  5
ACB
  8
0
  0
BLOCK
  8
0
  2
*D13
 70
     1
 10
0.0
 20
0.0
 30
0.0
  3
*D13
  1

  0
POINT
  5
190
  8
DEFPOINTS
  6
BYBLOCK
 62
     0
 10
1015.897294229662
 20
-1438.396404779038
 30
0.0
  0
POINT
  5
191
  8
DEFPOINTS
  6
BYBLOCK
 62
     0
 10
1978.588449197011
 20
-1106.396404860402
 30
0.0
  0
LINE
  5
192
  8
0
  6
BYBLOCK
 62
     0
 10
1015.897294229662
 20
-1437.771404779038
 30
0.0
 11
1015.897294229662
 21
-1039.887427362744
 31
0.0
  0
LINE
  5
193
  8
0
  6
BYBLOCK
 62
     0
 10
1978.588449197011
 20
-1105.771404860402
 30
0.0
 11
1978.588449197011
 21
-1039.887427362744
 31
0.0
  0
LINE
  5
194
  8
0
  6
BYBLOCK
 62
     0
 10
1065.897294229662
 20
-1041.137427362744
 30
0.0
 11
1928.588449197011
 21
-1041.137427362744
 31
0.0
  0
SOLID
  5
195
  8
0
  6
BYBLOCK
 62
     0
 10
1015.897294229662
 20
-1041.137427362744
 30
0.0
 11
1065.897294229662
 21
-1049.470760696079
 31
0.0
 12
1065.897294229662
 22
-1032.804094029409
 32
0.0
 13
1065.897294229662
 23
-1032.804094029409
 33
0.0
  0
SOLID
  5
196
  8
0
  6
BYBLOCK
 62
     0
 10
1978.588449197011
 20
-1041.137427362744
 30
0.0
 11
1928.588449197011
 21
-1049.470760696079
 31
0.0
 12
1928.588449197011
 22
-1032.804094029409
 32
0.0
 13
1928.588449197011
 23
-1032.804094029409
 33
0.0
  0
TEXT
  5
197
  8
0
  6
BYBLOCK
 62
     0
 10
1392.992871713336
 20
-1032.012427362744
 30
0.0
 40
50.0
  1
962,7
  0
ENDBLK
  5
ACD
  8
0
  0
BLOCK
  8
0
  2
*D14
 70
     1
 10
0.0
 20
0.0
 30
0.0
  3
*D14
  1

  0
POINT
  5
19B
  8
DEFPOINTS
  6
BYBLOCK
 62
     0
 10
1015.897294229662
 20
-1438.396404779038
 30
0.0
  0
POINT
  5
19C
  8
DEFPOINTS
  6
BYBLOCK
 62
     0
 10
1978.588449197011
 20
-1106.396404860402
 30
0.0
  0
LINE
  5
19D
  8
0
  6
BYBLOCK
 62
     0
 10
1015.897294229662
 20
-1437.771404779038
 30
0.0
 11
1015.897294229662
 21
-1039.887427362744
 31
0.0
  0
LINE
  5
19E
  8
0
  6
BYBLOCK
 62
     0
 10
1978.588449197011
 20
-1105.771404860402
 30
0.0
 11
1978.588449197011
 21
-1039.887427362744
 31
0.0
  0
LINE
  5
19F
  8
0
  6
BYBLOCK
 62
     0
 10
1065.897294229662
 20
-1041.137427362744
 30
0.0
 11
1928.588449197011
 21
-1041.137427362744
 31
0.0
  0
SOLID
  5
1A0
  8
0
  6
BYBLOCK
 62
     0
 10
1015.897294229662
 20
-1041.137427362744
 30
0.0
 11
1065.897294229662
 21
-1049.470760696079
 31
0.0
 12
1065.897294229662
 22
-1032.804094029409
 32
0.0
 13
1065.897294229662
 23
-1032.804094029409
 33
0.0
  0
SOLID
  5
1A1
  8
0
  6
BYBLOCK
 62
     0
 10
1978.588449197011
 20
-1041.137427362744
 30
0.0
 11
1928.588449197011
 21
-1049.470760696079
 31
0.0
 12
1928.588449197011
 22
-1032.804094029409
 32
0.0
 13
1928.588449197011
 23
-1032.804094029409
 33
0.0
  0
TEXT
  5
1A2
  8
0
  6
BYBLOCK
 62
     0
 10
1430.492871713336
 20
-1040.512427362744
 30
0.0
 40
50.0
  1
962
  0
ENDBLK
  5
ACF
  8
0
  0
BLOCK
  8
0
  2
*D15
 70
     1
 10
0.0
 20
0.0
 30
0.0
  3
*D15
  1

  0
POINT
  5
1A6
  8
DEFPOINTS
  6
BYBLOCK
 62
     0
 10
-63.38768628214772
 20
640.9999999999999
 30
0.0
  0
POINT
  5
1A7
  8
DEFPOINTS
  6
BYBLOCK
 62
     0
 10
-63.38768628214795
 20
240.9999999999999
 30
0.0
  0
LINE
  5
1A8
  8
0
  6
BYBLOCK
 62
     0
 10
-64.01268628214771
 20
640.9999999999999
 30
0.0
 11
-189.5380588464436
 21
640.9999999999999
 31
0.0
  0
LINE
  5
1A9
  8
0
  6
BYBLOCK
 62
     0
 10
-64.01268628214794
 20
240.9999999999999
 30
0.0
 11
-189.5380588464436
 21
240.9999999999999
 31
0.0
  0
LINE
  5
1AA
  8
0
  6
BYBLOCK
 62
     0
 10
-188.2880588464436
 20
638.4999999999999
 30
0.0
 11
-188.2880588464436
 21
243.4999999999999
 31
0.0
  0
SOLID
  5
1AB
  8
0
  6
BYBLOCK
 62
     0
 10
-188.2880588464436
 20
640.9999999999999
 30
0.0
 11
-188.7047255131104
 21
638.4999999999999
 31
0.0
 12
-187.8713921797769
 22
638.4999999999999
 32
0.0
 13
-187.8713921797769
 23
638.4999999999999
 33
0.0
  0
SOLID
  5
1AC
  8
0
  6
BYBLOCK
 62
     0
 10
-188.2880588464436
 20
240.9999999999999
 30
0.0
 11
-188.7047255131104
 21
243.4999999999999
 31
0.0
 12
-187.8713921797769
 22
243.4999999999999
 32
0.0
 13
-187.8713921797769
 23
243.4999999999999
 33
0.0
  0
TEXT
  5
1AD
  8
0
  6
BYBLOCK
 62
     0
 10
-188.9130588464436
 20
438.0874999999999
 30
0.0
 40
2.5
  1
400
 50
90.0
  0
ENDBLK
  5
AD1
  8
0
  0
BLOCK
  8
0
  2
*D16
 70
     1
 10
0.0
 20
0.0
 30
0.0
  3
*D16
  1

  0
POINT
  5
1B1
  8
DEFPOINTS
  6
BYBLOCK
 62
     0
 10
2397.0
 20
-272.1019160885593
 30
0.0
  0
POINT
  5
1B2
  8
DEFPOINTS
  6
BYBLOCK
 62
     0
 10
0.0
 20
168.8980839114406
 30
0.0
  0
LINE
  5
1B3
  8
0
  6
BYBLOCK
 62
     0
 10
2397.0
 20
-272.7269160885593
 30
0.0
 11
2397.0
 21
-416.9307482656778
 31
0.0
  0
LINE
  5
1B4
  8
0
  6
BYBLOCK
 62
     0
 10
0.0
 20
168.2730839114406
 30
0.0
 11
0.0
 21
-416.9307482656778
 31
0.0
  0
LINE
  5
1B5
  8
0
  6
BYBLOCK
 62
     0
 10
2394.5
 20
-415.6807482656778
 30
0.0
 11
2.5
 21
-415.6807482656778
 31
0.0
  0
SOLID
  5
1B6
  8
0
  6
BYBLOCK
 62
     0
 10
2397.0
 20
-415.6807482656778
 30
0.0
 11
2394.5
 21
-415.2640815990111
 31
0.0
 12
2394.5
 22
-416.0974149323446
 32
0.0
 13
2394.5
 23
-416.0974149323446
 33
0.0
  0
SOLID
  5
1B7
  8
0
  6
BYBLOCK
 62
     0
 10
0.0
 20
-415.6807482656778
 30
0.0
 11
2.5
 21
-415.2640815990111
 31
0.0
 12
2.5
 22
-416.0974149323446
 32
0.0
 13
2.5
 23
-416.0974149323446
 33
0.0
  0
TEXT
  5
1B8
  8
0
  6
BYBLOCK
 62
     0
 10
1193.9125
 20
-415.0557482656778
 30
0.0
 40
2.5
  1
2397
  0
ENDBLK
  5
AD3
  8
0
  0
BLOCK
  8
0
  2
*D17
 70
     1
 10
0.0
 20
0.0
 30
0.0
  3
*D17
  1

  0
POINT
  5
1BC
  8
DEFPOINTS
  6
BYBLOCK
 62
     0
 10
1520.620386244279
 20
440.9999999999999
 30
0.0
  0
POINT
  5
1BD
  8
DEFPOINTS
  6
BYBLOCK
 62
     0
 10
2454.865793341785
 20
0.0
 30
0.0
  0
LINE
  5
1BE
  8
0
  6
BYBLOCK
 62
     0
 10
1521.245386244279
 20
440.9999999999999
 30
0.0
 11
2571.222380025356
 21
440.9999999999999
 31
0.0
  0
LINE
  5
1BF
  8
0
  6
BYBLOCK
 62
     0
 10
2455.490793341785
 20
0.0
 30
0.0
 11
2571.222380025356
 21
0.0
 31
0.0
  0
LINE
  5
1C0
  8
0
  6
BYBLOCK
 62
     0
 10
2569.972380025356
 20
438.4999999999999
 30
0.0
 11
2569.972380025356
 21
2.5
 31
0.0
  0
SOLID
  5
1C1
  8
0
  6
BYBLOCK
 62
     0
 10
2569.972380025356
 20
440.9999999999999
 30
0.0
 11
2569.555713358689
 21
438.4999999999999
 31
0.0
 12
2570.389046692022
 22
438.4999999999999
 32
0.0
 13
2570.389046692022
 23
438.4999999999999
 33
0.0
  0
SOLID
  5
1C2
  8
0
  6
BYBLOCK
 62
     0
 10
2569.972380025356
 20
0.0
 30
0.0
 11
2569.555713358689
 21
2.5
 31
0.0
 12
2570.389046692022
 22
2.5
 32
0.0
 13
2570.389046692022
 23
2.5
 33
0.0
  0
TEXT
  5
1C3
  8
0
  6
BYBLOCK
 62
     0
 10
2569.347380025355
 20
217.5875000000001
 30
0.0
 40
2.5
  1
441
 50
90.0
  0
ENDBLK
  5
AD5
  8
0
  0
BLOCK
  8
0
  2
*D18
 70
     1
 10
0.0
 20
0.0
 30
0.0
  3
*D18
  1

  0
TEXT
  5
1C7
  8
0
  6
BYBLOCK
 62
     0
 10
2049.762899638765
 20
-1778.691184404177
 30
0.0
 40
50.0
  1
60\U+00B0
 50
357.0072774396899
  0
POINT
  5
1C8
  8
DEFPOINTS
  6
BYBLOCK
 62
     0
 10
1978.588449197011
 20
-2252.905382358059
 30
0.0
  0
POINT
  5
1C9
  8
DEFPOINTS
  6
BYBLOCK
 62
     0
 10
1978.588449197011
 20
-2252.905382358059
 30
0.0
  0
POINT
  5
1CA
  8
DEFPOINTS
  6
BYBLOCK
 62
     0
 10
1978.588449197011
 20
-1672.905382358059
 30
0.0
  0
POINT
  5
1CB
  8
DEFPOINTS
  6
BYBLOCK
 62
     0
 10
1476.293715002036
 20
-1962.905382358059
 30
0.0
  0
SOLID
  5
1CC
  8
0
  6
BYBLOCK
 62
     0
 10
1978.588449197011
 20
-1774.061789855657
 30
0.0
 11
1929.091716443798
 21
-1784.994213704077
 31
0.0
 12
1928.221564533674
 22
-1768.350277467982
 32
0.0
 13
1928.221564533674
 23
-1768.350277467982
 33
0.0
  0
SOLID
  5
1CD
  8
0
  6
BYBLOCK
 62
     0
 10
1563.897733650526
 20
-2013.483586106858
 30
0.0
 11
1584.134861160438
 21
-1967.00882828509
 31
0.0
 12
1598.113856804803
 22
-1976.084370062457
 32
0.0
 13
1598.113856804803
 23
-1976.084370062457
 33
0.0
  0
ARC
  5
1CE
  8
0
  6
BYBLOCK
 62
     0
 10
1978.588449197011
 20
-2252.905382358059
 30
0.0
 40
478.8435925024026
 50
95.9854451206202
 51
144.0145548793798
  0
ARC
  5
1CF
  8
0
  6
BYBLOCK
 62
     0
 10
1978.588449197011
 20
-2252.905382358059
 30
0.0
 40
478.8435925024026
 50
81.53144438349631
 51
90.0
  0
LINE
  5
1D0
  8
0
  6
BYBLOCK
 62
     0
 10
2049.106121333285
 20
-1779.282701316402
 30
0.0
 11
2158.207123360865
 21
-1784.986547087265
 31
0.0
  0
ENDBLK
  5
AD7
  8
0
  0
BLOCK
  8
0
  2
*D19
 70
     1
 10
0.0
 20
0.0
 30
0.0
  3
*D19
  1

  0
POINT
  5
1D4
  8
DEFPOINTS
  6
BYBLOCK
 62
     0
 10
1015.897294229662
 20
-1438.396404779038
 30
0.0
  0
POINT
  5
1D5
  8
DEFPOINTS
  6
BYBLOCK
 62
     0
 10
1978.588449197011
 20
-1106.396404860402
 30
0.0
  0
LINE
  5
1D6
  8
0
  6
BYBLOCK
 62
     0
 10
1015.897294229662
 20
-1437.771404779038
 30
0.0
 11
1015.897294229662
 21
-1039.887427362744
 31
0.0
  0
LINE
  5
1D7
  8
0
  6
BYBLOCK
 62
     0
 10
1978.588449197011
 20
-1105.771404860402
 30
0.0
 11
1978.588449197011
 21
-1039.887427362744
 31
0.0
  0
LINE
  5
1D8
  8
0
  6
BYBLOCK
 62
     0
 10
1065.897294229662
 20
-1041.137427362744
 30
0.0
 11
1928.588449197011
 21
-1041.137427362744
 31
0.0
  0
SOLID
  5
1D9
  8
0
  6
BYBLOCK
 62
     0
 10
1015.897294229662
 20
-1041.137427362744
 30
0.0
 11
1065.897294229662
 21
-1049.470760696079
 31
0.0
 12
1065.897294229662
 22
-1032.804094029409
 32
0.0
 13
1065.897294229662
 23
-1032.804094029409
 33
0.0
  0
SOLID
  5
1DA
  8
0
  6
BYBLOCK
 62
     0
 10
1978.588449197011
 20
-1041.137427362744
 30
0.0
 11
1928.588449197011
 21
-1049.470760696079
 31
0.0
 12
1928.588449197011
 22
-1032.804094029409
 32
0.0
 13
1928.588449197011
 23
-1032.804094029409
 33
0.0
  0
TEXT
  5
1DB
  8
0
  6
BYBLOCK
 62
     0
 10
1430.492871713336
 20
-1040.512427362744
 30
0.0
 40
50.0
  1
962
  0
ENDBLK
  5
AD9
  8
0
  0
BLOCK
  8
0
  2
*D20
 70
     1
 10
0.0
 20
0.0
 30
0.0
  3
*D20
  1

  0
POINT
  5
1E0
  8
DEFPOINTS
  6
BYBLOCK
 62
     0
 10
1978.588449197011
 20
-1172.905382358059
 30
0.0
  0
POINT
  5
1E1
  8
DEFPOINTS
  6
BYBLOCK
 62
     0
 10
1015.89729361164
 20
-1504.905382358059
 30
0.0
  0
LINE
  5
1E2
  8
0
  6
BYBLOCK
 62
     0
 10
1977.963449197011
 20
-1172.905382358059
 30
0.0
 11
931.1950098204172
 21
-1172.905382358059
 31
0.0
  0
LINE
  5
1E3
  8
0
  6
BYBLOCK
 62
     0
 10
1015.27229361164
 20
-1504.905382358059
 30
0.0
 11
931.1950098204172
 21
-1504.905382358059
 31
0.0
  0
LINE
  5
1E4
  8
0
  6
BYBLOCK
 62
     0
 10
932.4450098204172
 20
-1222.905382358059
 30
0.0
 11
932.4450098204172
 21
-1454.905382358059
 31
0.0
  0
SOLID
  5
1E5
  8
0
  6
BYBLOCK
 62
     0
 10
932.4450098204172
 20
-1172.905382358059
 30
0.0
 11
924.1116764870822
 21
-1222.905382358059
 31
0.0
 12
940.7783431537523
 22
-1222.905382358059
 32
0.0
 13
940.7783431537523
 23
-1222.905382358059
 33
0.0
  0
SOLID
  5
1E6
  8
0
  6
BYBLOCK
 62
     0
 10
932.4450098204172
 20
-1504.905382358059
 30
0.0
 11
924.1116764870822
 21
-1454.905382358059
 31
0.0
 12
940.7783431537523
 22
-1454.905382358059
 32
0.0
 13
940.7783431537523
 23
-1454.905382358059
 33
0.0
  0
TEXT
  5
1E7
  8
0
  6
BYBLOCK
 62
     0
 10
931.8200098204172
 20
-1405.655382358059
 30
0.0
 40
50.0
  1
332
 50
90.0
  0
ENDBLK
  5
ADB
  8
0
  0
BLOCK
  8
0
  2
*D21
 70
     1
 10
0.0
 20
0.0
 30
0.0
  3
*D21
  1

  0
POINT
  5
1EB
  8
DEFPOINTS
  6
BYBLOCK
 62
     0
 10
1895.136164787766
 20
-1172.905382439423
 30
0.0
  0
POINT
  5
1EC
  8
DEFPOINTS
  6
BYBLOCK
 62
     0
 10
932.4450092023958
 20
-1504.905382439423
 30
0.0
  0
LINE
  5
1ED
  8
0
  6
BYBLOCK
 62
     0
 10
1894.511164787766
 20
-1172.905382439423
 30
0.0
 11
847.7427254111726
 21
-1172.905382439423
 31
0.0
  0
LINE
  5
1EE
  8
0
  6
BYBLOCK
 62
     0
 10
931.8200092023958
 20
-1504.905382439423
 30
0.0
 11
847.7427254111726
 21
-1504.905382439423
 31
0.0
  0
LINE
  5
1EF
  8
0
  6
BYBLOCK
 62
     0
 10
848.9927254111726
 20
-1222.905382439423
 30
0.0
 11
848.9927254111726
 21
-1454.905382439423
 31
0.0
  0
SOLID
  5
1F0
  8
0
  6
BYBLOCK
 62
     0
 10
848.9927254111726
 20
-1172.905382439423
 30
0.0
 11
840.6593920778375
 21
-1222.905382439423
 31
0.0
 12
857.3260587445077
 22
-1222.905382439423
 32
0.0
 13
857.3260587445077
 23
-1222.905382439423
 33
0.0
  0
SOLID
  5
1F1
  8
0
  6
BYBLOCK
 62
     0
 10
848.9927254111726
 20
-1504.905382439423
 30
0.0
 11
840.6593920778375
 21
-1454.905382439423
 31
0.0
 12
857.3260587445077
 22
-1454.905382439423
 32
0.0
 13
857.3260587445077
 23
-1454.905382439423
 33
0.0
  0
TEXT
  5
1F2
  8
0
  6
BYBLOCK
 62
     0
 10
848.3677254111726
 20
-1405.655382439423
 30
0.0
 40
50.0
  1
332
 50
90.0
  0
ENDBLK
  5
ADD
  8
0
  0
BLOCK
  8
0
  2
*D22
 70
     1
 10
0.0
 20
0.0
 30
0.0
  3
*D22
  1

  0
TEXT
  5
1F7
  8
0
  6
BYBLOCK
 62
     0
 10
1108.725979758031
 20
-1578.974720644125
 30
0.0
 40
50.0
  1
128\U+00B0
 50
303.7500000000001
  0
POINT
  5
1F8
  8
DEFPOINTS
  6
BYBLOCK
 62
     0
 10
1043.281013109817
 20
-1712.905382358059
 30
0.0
  0
POINT
  5
1F9
  8
DEFPOINTS
  6
BYBLOCK
 62
     0
 10
1476.293715002036
 20
-1962.905382358059
 30
0.0
  0
POINT
  5
1FA
  8
DEFPOINTS
  6
BYBLOCK
 62
     0
 10
1043.281013109817
 20
-1712.905382358059
 30
0.0
  0
POINT
  5
1FB
  8
DEFPOINTS
  6
BYBLOCK
 62
     0
 10
989.7920551676261
 20
-1306.616410083298
 30
0.0
  0
SOLID
  5
1FC
  8
0
  6
BYBLOCK
 62
     0
 10
1026.547765416591
 20
-1585.803747372994
 30
0.0
 11
981.8779649408849
 21
-1609.763158256926
 31
0.0
 12
976.521929004242
 22
-1593.980552108914
 32
0.0
 13
976.521929004242
 23
-1593.980552108914
 33
0.0
  0
SOLID
  5
1FD
  8
0
  6
BYBLOCK
 62
     0
 10
1154.30407555938
 20
-1777.004577349571
 30
0.0
 11
1127.605634237311
 21
-1820.093296005578
 31
0.0
 12
1115.074073663581
 22
-1809.105222135931
 32
0.0
 13
1115.074073663581
 23
-1809.105222135931
 33
0.0
  0
ARC
  5
1FE
  8
0
  6
BYBLOCK
 62
     0
 10
1043.281013109817
 20
-1712.905382358059
 30
0.0
 40
128.1983899830239
 50
119.9906446655256
 51
143.4115497984236
  0
ARC
  5
1FF
  8
0
  6
BYBLOCK
 62
     0
 10
1043.281013109817
 20
-1712.905382358059
 30
0.0
 40
128.1983899830239
 50
284.0884502015767
 51
307.5093553344747
  0
ARC
  5
200
  8
0
  6
BYBLOCK
 62
     0
 10
1043.281013109817
 20
-1712.905382358059
 30
0.0
 40
128.1983899830239
 50
307.5093553344747
 51
119.9906446655256
  0
ENDBLK
  5
ADF
  8
0
  0
BLOCK
  8
0
  2
*D23
 70
     1
 10
0.0
 20
0.0
 30
0.0
  3
*D23
  1

  0
POINT
  5
215
  8
DEFPOINTS
  6
BYBLOCK
 62
     0
 10
2203.588449197011
 20
-1172.905382358059
 30
0.0
  0
POINT
  5
216
  8
DEFPOINTS
  6
BYBLOCK
 62
     0
 10
2203.588449197011
 20
-1672.905382358059
 30
0.0
  0
LINE
  5
217
  8
0
  6
BYBLOCK
 62
     0
 10
2204.213449197011
 20
-1172.905382358059
 30
0.0
 11
2309.836041899595
 21
-1172.905382358059
 31
0.0
  0
LINE
  5
218
  8
0
  6
BYBLOCK
 62
     0
 10
2204.213449197011
 20
-1672.905382358059
 30
0.0
 11
2309.836041899595
 21
-1672.905382358059
 31
0.0
  0
LINE
  5
219
  8
0
  6
BYBLOCK
 62
     0
 10
2308.586041899595
 20
-1222.905382358059
 30
0.0
 11
2308.586041899595
 21
-1622.905382358059
 31
0.0
  0
SOLID
  5
21A
  8
0
  6
BYBLOCK
 62
     0
 10
2308.586041899595
 20
-1172.905382358059
 30
0.0
 11
2300.252708566261
 21
-1222.905382358059
 31
0.0
 12
2316.91937523293
 22
-1222.905382358059
 32
0.0
 13
2316.91937523293
 23
-1222.905382358059
 33
0.0
  0
SOLID
  5
21B
  8
0
  6
BYBLOCK
 62
     0
 10
2308.586041899595
 20
-1672.905382358059
 30
0.0
 11
2300.252708566261
 21
-1622.905382358059
 31
0.0
 12
2316.91937523293
 22
-1622.905382358059
 32
0.0
 13
2316.91937523293
 23
-1622.905382358059
 33
0.0
  0
TEXT
  5
21C
  8
0
  6
BYBLOCK
 62
     0
 10
2307.961041899595
 20
-1481.155382358059
 30
0.0
 40
50.0
  1
500
 50
90.0
  0
ENDBLK
  5
AE1
  8
0
  0
BLOCK
  8
0
  2
*D24
 70
     1
 10
0.0
 20
0.0
 30
0.0
  3
*D24
  1

  0
POINT
  5
220
  8
DEFPOINTS
  6
BYBLOCK
 62
     0
 10
2309.211041899595
 20
-1172.905382358059
 30
0.0
  0
POINT
  5
221
  8
DEFPOINTS
  6
BYBLOCK
 62
     0
 10
2309.211041899595
 20
-1672.905382358059
 30
0.0
  0
LINE
  5
222
  8
0
  6
BYBLOCK
 62
     0
 10
2309.836041899595
 20
-1172.905382358059
 30
0.0
 11
2415.45863460218
 21
-1172.905382358059
 31
0.0
  0
LINE
  5
223
  8
0
  6
BYBLOCK
 62
     0
 10
2309.836041899595
 20
-1672.905382358059
 30
0.0
 11
2415.45863460218
 21
-1672.905382358059
 31
0.0
  0
LINE
  5
224
  8
0
  6
BYBLOCK
 62
     0
 10
2414.20863460218
 20
-1222.905382358059
 30
0.0
 11
2414.20863460218
 21
-1622.905382358059
 31
0.0
  0
SOLID
  5
225
  8
0
  6
BYBLOCK
 62
     0
 10
2414.20863460218
 20
-1172.905382358059
 30
0.0
 11
2405.875301268845
 21
-1222.905382358059
 31
0.0
 12
2422.541967935515
 22
-1222.905382358059
 32
0.0
 13
2422.541967935515
 23
-1222.905382358059
 33
0.0
  0
SOLID
  5
226
  8
0
  6
BYBLOCK
 62
     0
 10
2414.20863460218
 20
-1672.905382358059
 30
0.0
 11
2405.875301268845
 21
-1622.905382358059
 31
0.0
 12
2422.541967935515
 22
-1622.905382358059
 32
0.0
 13
2422.541967935515
 23
-1622.905382358059
 33
0.0
  0
TEXT
  5
227
  8
0
  6
BYBLOCK
 62
     0
 10
2413.58363460218
 20
-1481.155382358059
 30
0.0
 40
50.0
  1
500
 50
90.0
  0
ENDBLK
  5
AE3
  8
0
  0
BLOCK
  8
0
  2
*D25
 70
     1
 10
0.0
 20
0.0
 30
0.0
  3
*D25
  1

  0
POINT
  5
22C
  8
DEFPOINTS
  6
BYBLOCK
 62
     0
 10
930.781013109817
 20
-1907.761098209558
 30
0.0
  0
POINT
  5
22D
  8
DEFPOINTS
  6
BYBLOCK
 62
     0
 10
1363.793715002036
 20
-2157.761098209558
 30
0.0
  0
LINE
  5
22E
  8
0
  6
BYBLOCK
 62
     0
 10
930.468513109817
 20
-1908.302364086923
 30
0.0
 11
878.4576106329256
 21
-1998.387889724409
 31
0.0
  0
LINE
  5
22F
  8
0
  6
BYBLOCK
 62
     0
 10
1363.481215002036
 20
-2158.302364086923
 30
0.0
 11
1311.470312525145
 21
-2248.387889724409
 31
0.0
  0
LINE
  5
230
  8
0
  6
BYBLOCK
 62
     0
 10
922.3838808221475
 20
-2022.305357969678
 30
0.0
 11
1268.794042335923
 21
-2222.305357969678
 31
0.0
  0
SOLID
  5
231
  8
0
  6
BYBLOCK
 62
     0
 10
879.0826106329256
 20
-1997.305357969678
 30
0.0
 11
918.21721415548
 21
-2029.52223633455
 31
0.0
 12
926.550547488815
 22
-2015.088479604807
 32
0.0
 13
926.550547488815
 23
-2015.088479604807
 33
0.0
  0
SOLID
  5
232
  8
0
  6
BYBLOCK
 62
     0
 10
1312.095312525145
 20
-2247.305357969678
 30
0.0
 11
1264.627375669255
 21
-2229.52223633455
 31
0.0
 12
1272.96070900259
 22
-2215.088479604807
 32
0.0
 13
1272.96070900259
 23
-2215.088479604807
 33
0.0
  0
TEXT
  5
233
  8
0
  6
BYBLOCK
 62
     0
 10
1045.455481808592
 20
-2092.639092092313
 30
0.0
 40
50.0
  1
500
 50
330.0
  0
ENDBLK
  5
AE5
  8
0
  0
BLOCK
  8
0
  2
*D26
 70
     1
 10
0.0
 20
0.0
 30
0.0
  3
*D26
  1

  0
POINT
  5
237
  8
DEFPOINTS
  6
BYBLOCK
 62
     0
 10
879.0826106329255
 20
-1997.305357969678
 30
0.0
  0
POINT
  5
238
  8
DEFPOINTS
  6
BYBLOCK
 62
     0
 10
1312.095312525145
 20
-2247.305357969678
 30
0.0
  0
LINE
  5
239
  8
0
  6
BYBLOCK
 62
     0
 10
878.7701106329255
 20
-1997.846623847044
 30
0.0
 11
826.7592081560341
 21
-2087.932149484529
 31
0.0
  0
LINE
  5
23A
  8
0
  6
BYBLOCK
 62
     0
 10
1311.782812525145
 20
-2247.846623847044
 30
0.0
 11
1259.771910048253
 21
-2337.932149484529
 31
0.0
  0
LINE
  5
23B
  8
0
  6
BYBLOCK
 62
     0
 10
870.685478345256
 20
-2111.849617729799
 30
0.0
 11
1217.095639859031
 21
-2311.849617729799
 31
0.0
  0
SOLID
  5
23C
  8
0
  6
BYBLOCK
 62
     0
 10
827.3842081560341
 20
-2086.849617729799
 30
0.0
 11
866.5188116785885
 21
-2119.066496094671
 31
0.0
 12
874.8521450119235
 22
-2104.632739364927
 32
0.0
 13
874.8521450119235
 23
-2104.632739364927
 33
0.0
  0
SOLID
  5
23D
  8
0
  6
BYBLOCK
 62
     0
 10
1260.396910048253
 20
-2336.849617729799
 30
0.0
 11
1212.928973192364
 21
-2319.066496094671
 31
0.0
 12
1221.262306525699
 22
-2304.632739364927
 32
0.0
 13
1221.262306525699
 23
-2304.632739364927
 33
0.0
  0
TEXT
  5
23E
  8
0
  6
BYBLOCK
 62
     0
 10
993.7570793317001
 20
-2182.183351852434
 30
0.0
 40
50.0
  1
500
 50
330.0
  0
ENDBLK
  5
AE7
  8
0
  0
BLOCK
  8
0
  2
*D27
 70
     1
 10
0.0
 20
0.0
 30
0.0
  3
*D27
  1

  0
POINT
  5
242
  8
DEFPOINTS
  6
BYBLOCK
 62
     0
 10
-63.38768628214772
 20
640.9999999999999
 30
0.0
  0
POINT
  5
243
  8
DEFPOINTS
  6
BYBLOCK
 62
     0
 10
-63.38768628214795
 20
240.9999999999999
 30
0.0
  0
LINE
  5
244
  8
0
  6
BYBLOCK
 62
     0
 10
-64.01268628214771
 20
640.9999999999999
 30
0.0
 11
-189.5380588464436
 21
640.9999999999999
 31
0.0
  0
LINE
  5
245
  8
0
  6
BYBLOCK
 62
     0
 10
-64.01268628214794
 20
240.9999999999999
 30
0.0
 11
-189.5380588464436
 21
240.9999999999999
 31
0.0
  0
LINE
  5
246
  8
0
  6
BYBLOCK
 62
     0
 10
-188.2880588464436
 20
638.4999999999999
 30
0.0
 11
-188.2880588464436
 21
243.4999999999999
 31
0.0
  0
SOLID
  5
247
  8
0
  6
BYBLOCK
 62
     0
 10
-188.2880588464436
 20
640.9999999999999
 30
0.0
 11
-188.7047255131104
 21
638.4999999999999
 31
0.0
 12
-187.8713921797769
 22
638.4999999999999
 32
0.0
 13
-187.8713921797769
 23
638.4999999999999
 33
0.0
  0
SOLID
  5
248
  8
0
  6
BYBLOCK
 62
     0
 10
-188.2880588464436
 20
240.9999999999999
 30
0.0
 11
-188.7047255131104
 21
243.4999999999999
 31
0.0
 12
-187.8713921797769
 22
243.4999999999999
 32
0.0
 13
-187.8713921797769
 23
243.4999999999999
 33
0.0
  0
TEXT
  5
249
  8
0
  6
BYBLOCK
 62
     0
 10
-188.9130588464436
 20
438.0874999999999
 30
0.0
 40
2.5
  1
400
 50
90.0
  0
ENDBLK
  5
AE9
  8
MASSE
  0
BLOCK
  8
0
  2
*D28
 70
     1
 10
0.0
 20
0.0
 30
0.0
  3
*D28
  1

  0
POINT
  5
24D
  8
DEFPOINTS
  6
BYBLOCK
 62
     0
 10
2397.0
 20
-272.1019160885593
 30
0.0
  0
POINT
  5
24E
  8
DEFPOINTS
  6
BYBLOCK
 62
     0
 10
0.0
 20
168.8980839114406
 30
0.0
  0
LINE
  5
24F
  8
0
  6
BYBLOCK
 62
     0
 10
2397.0
 20
-272.7269160885593
 30
0.0
 11
2397.0
 21
-416.9307482656778
 31
0.0
  0
LINE
  5
250
  8
0
  6
BYBLOCK
 62
     0
 10
0.0
 20
168.2730839114406
 30
0.0
 11
0.0
 21
-416.9307482656778
 31
0.0
  0
LINE
  5
251
  8
0
  6
BYBLOCK
 62
     0
 10
2394.5
 20
-415.6807482656778
 30
0.0
 11
2.5
 21
-415.6807482656778
 31
0.0
  0
SOLID
  5
252
  8
0
  6
BYBLOCK
 62
     0
 10
2397.0
 20
-415.6807482656778
 30
0.0
 11
2394.5
 21
-415.2640815990111
 31
0.0
 12
2394.5
 22
-416.0974149323446
 32
0.0
 13
2394.5
 23
-416.0974149323446
 33
0.0
  0
SOLID
  5
253
  8
0
  6
BYBLOCK
 62
     0
 10
0.0
 20
-415.6807482656778
 30
0.0
 11
2.5
 21
-415.2640815990111
 31
0.0
 12
2.5
 22
-416.0974149323446
 32
0.0
 13
2.5
 23
-416.0974149323446
 33
0.0
  0
TEXT
  5
254
  8
0
  6
BYBLOCK
 62
     0
 10
1193.9125
 20
-415.0557482656778
 30
0.0
 40
2.5
  1
2397
  0
ENDBLK
  5
AEB
  8
MASSE
  0
BLOCK
  8
0
  2
*D29
 70
     1
 10
0.0
 20
0.0
 30
0.0
  3
*D29
  1

  0
POINT
  5
258
  8
DEFPOINTS
  6
BYBLOCK
 62
     0
 10
1520.620386244279
 20
440.9999999999999
 30
0.0
  0
POINT
  5
259
  8
DEFPOINTS
  6
BYBLOCK
 62
     0
 10
2454.865793341785
 20
0.0
 30
0.0
  0
LINE
  5
25A
  8
0
  6
BYBLOCK
 62
     0
 10
1521.245386244279
 20
440.9999999999999
 30
0.0
 11
2571.222380025356
 21
440.9999999999999
 31
0.0
  0
LINE
  5
25B
  8
0
  6
BYBLOCK
 62
     0
 10
2455.490793341785
 20
0.0
 30
0.0
 11
2571.222380025356
 21
0.0
 31
0.0
  0
LINE
  5
25C
  8
0
  6
BYBLOCK
 62
     0
 10
2569.972380025356
 20
438.4999999999999
 30
0.0
 11
2569.972380025356
 21
2.5
 31
0.0
  0
SOLID
  5
25D
  8
0
  6
BYBLOCK
 62
     0
 10
2569.972380025356
 20
440.9999999999999
 30
0.0
 11
2569.555713358689
 21
438.4999999999999
 31
0.0
 12
2570.389046692022
 22
438.4999999999999
 32
0.0
 13
2570.389046692022
 23
438.4999999999999
 33
0.0
  0
SOLID
  5
25E
  8
0
  6
BYBLOCK
 62
     0
 10
2569.972380025356
 20
0.0
 30
0.0
 11
2569.555713358689
 21
2.5
 31
0.0
 12
2570.389046692022
 22
2.5
 32
0.0
 13
2570.389046692022
 23
2.5
 33
0.0
  0
TEXT
  5
25F
  8
0
  6
BYBLOCK
 62
     0
 10
2569.347380025355
 20
217.5875000000001
 30
0.0
 40
2.5
  1
441
 50
90.0
  0
ENDBLK
  5
AED
  8
MASSE
  0
BLOCK
  8
0
  2
*D30
 70
     1
 10
0.0
 20
0.0
 30
0.0
  3
*D30
  1

  0
TEXT
  5
263
  8
0
  6
BYBLOCK
 62
     0
 10
2049.762899638765
 20
-1778.691184404177
 30
0.0
 40
50.0
  1
60\U+00B0
 50
357.0072774396899
  0
POINT
  5
264
  8
DEFPOINTS
  6
BYBLOCK
 62
     0
 10
1978.588449197011
 20
-2252.905382358059
 30
0.0
  0
POINT
  5
265
  8
DEFPOINTS
  6
BYBLOCK
 62
     0
 10
1978.588449197011
 20
-2252.905382358059
 30
0.0
  0
POINT
  5
266
  8
DEFPOINTS
  6
BYBLOCK
 62
     0
 10
1978.588449197011
 20
-1672.905382358059
 30
0.0
  0
POINT
  5
267
  8
DEFPOINTS
  6
BYBLOCK
 62
     0
 10
1476.293715002036
 20
-1962.905382358059
 30
0.0
  0
SOLID
  5
268
  8
0
  6
BYBLOCK
 62
     0
 10
1978.588449197011
 20
-1774.061789855657
 30
0.0
 11
1929.091716443798
 21
-1784.994213704077
 31
0.0
 12
1928.221564533674
 22
-1768.350277467982
 32
0.0
 13
1928.221564533674
 23
-1768.350277467982
 33
0.0
  0
SOLID
  5
269
  8
0
  6
BYBLOCK
 62
     0
 10
1563.897733650526
 20
-2013.483586106858
 30
0.0
 11
1584.134861160438
 21
-1967.00882828509
 31
0.0
 12
1598.113856804803
 22
-1976.084370062457
 32
0.0
 13
1598.113856804803
 23
-1976.084370062457
 33
0.0
  0
ARC
  5
26A
  8
0
  6
BYBLOCK
 62
     0
 10
1978.588449197011
 20
-2252.905382358059
 30
0.0
 40
478.8435925024026
 50
95.9854451206202
 51
144.0145548793798
  0
ARC
  5
26B
  8
0
  6
BYBLOCK
 62
     0
 10
1978.588449197011
 20
-2252.905382358059
 30
0.0
 40
478.8435925024026
 50
81.53144438349631
 51
90.0
  0
LINE
  5
26C
  8
0
  6
BYBLOCK
 62
     0
 10
2049.106121333285
 20
-1779.282701316402
 30
0.0
 11
2158.207123360865
 21
-1784.986547087265
 31
0.0
  0
ENDBLK
  5
AEF
  8
MASSE
  0
BLOCK
  8
0
  2
*D31
 70
     1
 10
0.0
 20
0.0
 30
0.0
  3
*D31
  1

  0
POINT
  5
270
  8
DEFPOINTS
  6
BYBLOCK
 62
     0
 10
1015.897294229662
 20
-1438.396404779038
 30
0.0
  0
POINT
  5
271
  8
DEFPOINTS
  6
BYBLOCK
 62
     0
 10
1978.588449197011
 20
-1106.396404860402
 30
0.0
  0
LINE
  5
272
  8
0
  6
BYBLOCK
 62
     0
 10
1015.897294229662
 20
-1437.771404779038
 30
0.0
 11
1015.897294229662
 21
-1039.887427362744
 31
0.0
  0
LINE
  5
273
  8
0
  6
BYBLOCK
 62
     0
 10
1978.588449197011
 20
-1105.771404860402
 30
0.0
 11
1978.588449197011
 21
-1039.887427362744
 31
0.0
  0
LINE
  5
274
  8
0
  6
BYBLOCK
 62
     0
 10
1065.897294229662
 20
-1041.137427362744
 30
0.0
 11
1928.588449197011
 21
-1041.137427362744
 31
0.0
  0
SOLID
  5
275
  8
0
  6
BYBLOCK
 62
     0
 10
1015.897294229662
 20
-1041.137427362744
 30
0.0
 11
1065.897294229662
 21
-1049.470760696079
 31
0.0
 12
1065.897294229662
 22
-1032.804094029409
 32
0.0
 13
1065.897294229662
 23
-1032.804094029409
 33
0.0
  0
SOLID
  5
276
  8
0
  6
BYBLOCK
 62
     0
 10
1978.588449197011
 20
-1041.137427362744
 30
0.0
 11
1928.588449197011
 21
-1049.470760696079
 31
0.0
 12
1928.588449197011
 22
-1032.804094029409
 32
0.0
 13
1928.588449197011
 23
-1032.804094029409
 33
0.0
  0
TEXT
  5
277
  8
0
  6
BYBLOCK
 62
     0
 10
1430.492871713336
 20
-1040.512427362744
 30
0.0
 40
50.0
  1
962
  0
ENDBLK
  5
AF1
  8
MASSE
  0
BLOCK
  8
0
  2
*D32
 70
     1
 10
0.0
 20
0.0
 30
0.0
  3
*D32
  1

  0
POINT
  5
27B
  8
DEFPOINTS
  6
BYBLOCK
 62
     0
 10
1895.136164787766
 20
-1172.905382439423
 30
0.0
  0
POINT
  5
27C
  8
DEFPOINTS
  6
BYBLOCK
 62
     0
 10
932.4450092023958
 20
-1504.905382439423
 30
0.0
  0
LINE
  5
27D
  8
0
  6
BYBLOCK
 62
     0
 10
1894.511164787766
 20
-1172.905382439423
 30
0.0
 11
847.7427254111726
 21
-1172.905382439423
 31
0.0
  0
LINE
  5
27E
  8
0
  6
BYBLOCK
 62
     0
 10
931.8200092023958
 20
-1504.905382439423
 30
0.0
 11
847.7427254111726
 21
-1504.905382439423
 31
0.0
  0
LINE
  5
27F
  8
0
  6
BYBLOCK
 62
     0
 10
848.9927254111726
 20
-1222.905382439423
 30
0.0
 11
848.9927254111726
 21
-1454.905382439423
 31
0.0
  0
SOLID
  5
280
  8
0
  6
BYBLOCK
 62
     0
 10
848.9927254111726
 20
-1172.905382439423
 30
0.0
 11
840.6593920778375
 21
-1222.905382439423
 31
0.0
 12
857.3260587445077
 22
-1222.905382439423
 32
0.0
 13
857.3260587445077
 23
-1222.905382439423
 33
0.0
  0
SOLID
  5
281
  8
0
  6
BYBLOCK
 62
     0
 10
848.9927254111726
 20
-1504.905382439423
 30
0.0
 11
840.6593920778375
 21
-1454.905382439423
 31
0.0
 12
857.3260587445077
 22
-1454.905382439423
 32
0.0
 13
857.3260587445077
 23
-1454.905382439423
 33
0.0
  0
TEXT
  5
282
  8
0
  6
BYBLOCK
 62
     0
 10
848.3677254111726
 20
-1405.655382439423
 30
0.0
 40
50.0
  1
332
 50
90.0
  0
ENDBLK
  5
AF3
  8
MASSE
  0
BLOCK
  8
0
  2
*D33
 70
     1
 10
0.0
 20
0.0
 30
0.0
  3
*D33
  1

  0
TEXT
  5
286
  8
0
  6
BYBLOCK
 62
     0
 10
1104.298354007926
 20
-1826.288976045733
 30
0.0
 40
50.0
  1
128\U+00B0
 50
303.7453223327624
  0
POINT
  5
287
  8
DEFPOINTS
  6
BYBLOCK
 62
     0
 10
1043.281013109817
 20
-1712.905382358059
 30
0.0
  0
POINT
  5
288
  8
DEFPOINTS
  6
BYBLOCK
 62
     0
 10
1476.293715002036
 20
-1962.905382358059
 30
0.0
  0
POINT
  5
289
  8
DEFPOINTS
  6
BYBLOCK
 62
     0
 10
1043.281013109817
 20
-1712.905382358059
 30
0.0
  0
POINT
  5
28A
  8
DEFPOINTS
  6
BYBLOCK
 62
     0
 10
989.7920551676261
 20
-1306.616410083298
 30
0.0
  0
SOLID
  5
28B
  8
0
  6
BYBLOCK
 62
     0
 10
1026.547765416591
 20
-1585.803747372994
 30
0.0
 11
1076.985325582732
 21
-1580.754295033242
 31
0.0
 12
1075.896631197454
 22
-1597.385366024412
 32
0.0
 13
1075.896631197454
 23
-1597.385366024412
 33
0.0
  0
SOLID
  5
28C
  8
0
  6
BYBLOCK
 62
     0
 10
1154.30407555938
 20
-1777.004577349571
 30
0.0
 11
1162.489048474329
 21
-1726.980076724117
 31
0.0
 12
1178.270779870968
 22
-1732.338689595208
 32
0.0
 13
1178.270779870968
 23
-1732.338689595208
 33
0.0
  0
ARC
  5
28D
  8
0
  6
BYBLOCK
 62
     0
 10
1043.281013109817
 20
-1712.905382358059
 30
0.0
 40
128.1983899830239
 50
352.4906446655252
 51
75.00935533447509
  0
ARC
  5
28E
  8
0
  6
BYBLOCK
 62
     0
 10
1043.281013109817
 20
-1712.905382358059
 30
0.0
 40
128.1983899830239
 50
297.9822631766826
 51
330.0
  0
LINE
  5
28F
  8
0
  6
BYBLOCK
 62
     0
 10
1103.431468185376
 20
-1826.116468159948
 30
0.0
 11
1187.451198533864
 21
-1951.883106868977
 31
0.0
  0
ENDBLK
  5
AF5
  8
MASSE
  0
BLOCK
  8
0
  2
*D34
 70
     1
 10
0.0
 20
0.0
 30
0.0
  3
*D34
  1

  0
POINT
  5
293
  8
DEFPOINTS
  6
BYBLOCK
 62
     0
 10
2309.211041899595
 20
-1172.905382358059
 30
0.0
  0
POINT
  5
294
  8
DEFPOINTS
  6
BYBLOCK
 62
     0
 10
2309.211041899595
 20
-1672.905382358059
 30
0.0
  0
LINE
  5
295
  8
0
  6
BYBLOCK
 62
     0
 10
2309.836041899595
 20
-1172.905382358059
 30
0.0
 11
2415.45863460218
 21
-1172.905382358059
 31
0.0
  0
LINE
  5
296
  8
0
  6
BYBLOCK
 62
     0
 10
2309.836041899595
 20
-1672.905382358059
 30
0.0
 11
2415.45863460218
 21
-1672.905382358059
 31
0.0
  0
LINE
  5
297
  8
0
  6
BYBLOCK
 62
     0
 10
2414.20863460218
 20
-1222.905382358059
 30
0.0
 11
2414.20863460218
 21
-1622.905382358059
 31
0.0
  0
SOLID
  5
298
  8
0
  6
BYBLOCK
 62
     0
 10
2414.20863460218
 20
-1172.905382358059
 30
0.0
 11
2405.875301268845
 21
-1222.905382358059
 31
0.0
 12
2422.541967935515
 22
-1222.905382358059
 32
0.0
 13
2422.541967935515
 23
-1222.905382358059
 33
0.0
  0
SOLID
  5
299
  8
0
  6
BYBLOCK
 62
     0
 10
2414.20863460218
 20
-1672.905382358059
 30
0.0
 11
2405.875301268845
 21
-1622.905382358059
 31
0.0
 12
2422.541967935515
 22
-1622.905382358059
 32
0.0
 13
2422.541967935515
 23
-1622.905382358059
 33
0.0
  0
TEXT
  5
29A
  8
0
  6
BYBLOCK
 62
     0
 10
2413.58363460218
 20
-1481.155382358059
 30
0.0
 40
50.0
  1
500
 50
90.0
  0
ENDBLK
  5
AF7
  8
MASSE
  0
BLOCK
  8
0
  2
*D35
 70
     1
 10
0.0
 20
0.0
 30
0.0
  3
*D35
  1

  0
POINT
  5
29E
  8
DEFPOINTS
  6
BYBLOCK
 62
     0
 10
879.0826106329255
 20
-1997.305357969678
 30
0.0
  0
POINT
  5
29F
  8
DEFPOINTS
  6
BYBLOCK
 62
     0
 10
1312.095312525145
 20
-2247.305357969678
 30
0.0
  0
LINE
  5
2A0
  8
0
  6
BYBLOCK
 62
     0
 10
878.7701106329255
 20
-1997.846623847044
 30
0.0
 11
826.7592081560341
 21
-2087.932149484529
 31
0.0
  0
LINE
  5
2A1
  8
0
  6
BYBLOCK
 62
     0
 10
1311.782812525145
 20
-2247.846623847044
 30
0.0
 11
1259.771910048253
 21
-2337.932149484529
 31
0.0
  0
LINE
  5
2A2
  8
0
  6
BYBLOCK
 62
     0
 10
870.685478345256
 20
-2111.849617729799
 30
0.0
 11
1217.095639859031
 21
-2311.849617729799
 31
0.0
  0
SOLID
  5
2A3
  8
0
  6
BYBLOCK
 62
     0
 10
827.3842081560341
 20
-2086.849617729799
 30
0.0
 11
866.5188116785885
 21
-2119.066496094671
 31
0.0
 12
874.8521450119235
 22
-2104.632739364927
 32
0.0
 13
874.8521450119235
 23
-2104.632739364927
 33
0.0
  0
SOLID
  5
2A4
  8
0
  6
BYBLOCK
 62
     0
 10
1260.396910048253
 20
-2336.849617729799
 30
0.0
 11
1212.928973192364
 21
-2319.066496094671
 31
0.0
 12
1221.262306525699
 22
-2304.632739364927
 32
0.0
 13
1221.262306525699
 23
-2304.632739364927
 33
0.0
  0
TEXT
  5
2A5
  8
0
  6
BYBLOCK
 62
     0
 10
993.7570793317001
 20
-2182.183351852434
 30
0.0
 40
50.0
  1
500
 50
330.0
  0
ENDBLK
  5
AF9
  8
MASSE
  0
BLOCK
  8
0
  2
*D36
 70
     1
 10
0.0
 20
0.0
 30
0.0
  3
*D36
  1

  0
POINT
  5
2AA
  8
DEFPOINTS
  6
BYBLOCK
 62
     0
 10
1521.245386244279
 20
440.9999999999999
 30
0.0
  0
POINT
  5
2AB
  8
DEFPOINTS
  6
BYBLOCK
 62
     0
 10
2455.490793341785
 20
0.0
 30
0.0
  0
LINE
  5
2AC
  8
0
  6
BYBLOCK
 62
     0
 10
1521.870386244279
 20
440.9999999999999
 30
0.0
 11
2534.822939160204
 21
440.9999999999999
 31
0.0
  0
LINE
  5
2AD
  8
0
  6
BYBLOCK
 62
     0
 10
2456.115793341785
 20
0.0
 30
0.0
 11
2534.822939160204
 21
0.0
 31
0.0
  0
LINE
  5
2AE
  8
0
  6
BYBLOCK
 62
     0
 10
2533.572939160204
 20
390.9999999999999
 30
0.0
 11
2533.572939160204
 21
50.0
 31
0.0
  0
SOLID
  5
2AF
  8
0
  6
BYBLOCK
 62
     0
 10
2533.572939160204
 20
440.9999999999999
 30
0.0
 11
2525.23960582687
 21
390.9999999999999
 31
0.0
 12
2541.906272493539
 22
390.9999999999999
 32
0.0
 13
2541.906272493539
 23
390.9999999999999
 33
0.0
  0
SOLID
  5
2B0
  8
0
  6
BYBLOCK
 62
     0
 10
2533.572939160204
 20
0.0
 30
0.0
 11
2525.23960582687
 21
50.0
 31
0.0
 12
2541.906272493539
 22
50.0
 32
0.0
 13
2541.906272493539
 23
50.0
 33
0.0
  0
TEXT
  5
2B1
  8
0
  6
BYBLOCK
 62
     0
 10
2532.947939160204
 20
162.25
 30
0.0
 40
50.0
  1
441
 50
90.0
  0
ENDBLK
  5
AFB
  8
MASSE
  0
BLOCK
  8
0
  2
*D37
 70
     1
 10
0.0
 20
0.0
 30
0.0
  3
*D37
  1

  0
POINT
  5
2B6
  8
DEFPOINTS
  6
BYBLOCK
 62
     0
 10
0.0
 20
168.2730839114406
 30
0.0
  0
POINT
  5
2B7
  8
DEFPOINTS
  6
BYBLOCK
 62
     0
 10
2397.0
 20
-272.7269160885593
 30
0.0
  0
LINE
  5
2B8
  8
0
  6
BYBLOCK
 62
     0
 10
0.0
 20
167.6480839114406
 30
0.0
 11
0.0
 21
-346.0788321771186
 31
0.0
  0
LINE
  5
2B9
  8
0
  6
BYBLOCK
 62
     0
 10
2397.0
 20
-273.3519160885593
 30
0.0
 11
2397.0
 21
-346.0788321771186
 31
0.0
  0
LINE
  5
2BA
  8
0
  6
BYBLOCK
 62
     0
 10
50.0
 20
-344.8288321771186
 30
0.0
 11
2347.0
 21
-344.8288321771186
 31
0.0
  0
SOLID
  5
2BB
  8
0
  6
BYBLOCK
 62
     0
 10
0.0
 20
-344.8288321771186
 30
0.0
 11
50.0
 21
-353.1621655104535
 31
0.0
 12
50.0
 22
-336.4954988437835
 32
0.0
 13
50.0
 23
-336.4954988437835
 33
0.0
  0
SOLID
  5
2BC
  8
0
  6
BYBLOCK
 62
     0
 10
2397.0
 20
-344.8288321771186
 30
0.0
 11
2347.0
 21
-353.1621655104535
 31
0.0
 12
2347.0
 22
-336.4954988437835
 32
0.0
 13
2347.0
 23
-336.4954988437835
 33
0.0
  0
TEXT
  5
2BD
  8
0
  6
BYBLOCK
 62
     0
 10
1106.75
 20
-344.2038321771186
 30
0.0
 40
50.0
  1
2397
  0
ENDBLK
  5
AFD
  8
MASSE
  0
BLOCK
  8
0
  2
*D38
 70
     1
 10
0.0
 20
0.0
 30
0.0
  3
*D38
  1

  0
POINT
  5
2C2
  8
DEFPOINTS
  6
BYBLOCK
 62
     0
 10
-64.01268628214771
 20
640.9999999999999
 30
0.0
  0
POINT
  5
2C3
  8
DEFPOINTS
  6
BYBLOCK
 62
     0
 10
-64.01268628214794
 20
240.9999999999999
 30
0.0
  0
LINE
  5
2C4
  8
0
  6
BYBLOCK
 62
     0
 10
-64.63768628214771
 20
640.9999999999999
 30
0.0
 11
-128.0253725642958
 21
640.9999999999999
 31
0.0
  0
LINE
  5
2C5
  8
0
  6
BYBLOCK
 62
     0
 10
-64.63768628214794
 20
240.9999999999999
 30
0.0
 11
-128.0253725642958
 21
240.9999999999999
 31
0.0
  0
LINE
  5
2C6
  8
0
  6
BYBLOCK
 62
     0
 10
-126.7753725642958
 20
590.9999999999999
 30
0.0
 11
-126.7753725642958
 21
290.9999999999999
 31
0.0
  0
SOLID
  5
2C7
  8
0
  6
BYBLOCK
 62
     0
 10
-126.7753725642958
 20
640.9999999999999
 30
0.0
 11
-135.1087058976308
 21
590.9999999999999
 31
0.0
 12
-118.4420392309608
 22
590.9999999999999
 32
0.0
 13
-118.4420392309608
 23
590.9999999999999
 33
0.0
  0
SOLID
  5
2C8
  8
0
  6
BYBLOCK
 62
     0
 10
-126.7753725642958
 20
240.9999999999999
 30
0.0
 11
-135.1087058976308
 21
290.9999999999999
 31
0.0
 12
-118.4420392309608
 22
290.9999999999999
 32
0.0
 13
-118.4420392309608
 23
290.9999999999999
 33
0.0
  0
TEXT
  5
2C9
  8
0
  6
BYBLOCK
 62
     0
 10
-127.4003725642958
 20
382.7499999999998
 30
0.0
 40
50.0
  1
400
 50
90.0
  0
ENDBLK
  5
AFF
  8
MASSE
  0
BLOCK
  8
0
  2
*D39
 70
     1
 10
0.0
 20
0.0
 30
0.0
  3
*D39
  1

  0
POINT
  5
2CE
  8
DEFPOINTS
  6
BYBLOCK
 62
     0
 10
1015.897294229662
 20
-1438.396404779038
 30
0.0
  0
POINT
  5
2CF
  8
DEFPOINTS
  6
BYBLOCK
 62
     0
 10
1978.588449197011
 20
-1106.396404860402
 30
0.0
  0
LINE
  5
2D0
  8
0
  6
BYBLOCK
 62
     0
 10
1015.897294229662
 20
-1437.771404779038
 30
0.0
 11
1015.897294229662
 21
-1039.887427362744
 31
0.0
  0
LINE
  5
2D1
  8
0
  6
BYBLOCK
 62
     0
 10
1978.588449197011
 20
-1105.771404860402
 30
0.0
 11
1978.588449197011
 21
-1039.887427362744
 31
0.0
  0
LINE
  5
2D2
  8
0
  6
BYBLOCK
 62
     0
 10
1065.897294229662
 20
-1041.137427362744
 30
0.0
 11
1928.588449197011
 21
-1041.137427362744
 31
0.0
  0
SOLID
  5
2D3
  8
0
  6
BYBLOCK
 62
     0
 10
1015.897294229662
 20
-1041.137427362744
 30
0.0
 11
1065.897294229662
 21
-1049.470760696079
 31
0.0
 12
1065.897294229662
 22
-1032.804094029409
 32
0.0
 13
1065.897294229662
 23
-1032.804094029409
 33
0.0
  0
SOLID
  5
2D4
  8
0
  6
BYBLOCK
 62
     0
 10
1978.588449197011
 20
-1041.137427362744
 30
0.0
 11
1928.588449197011
 21
-1049.470760696079
 31
0.0
 12
1928.588449197011
 22
-1032.804094029409
 32
0.0
 13
1928.588449197011
 23
-1032.804094029409
 33
0.0
  0
TEXT
  5
2D5
  8
0
  6
BYBLOCK
 62
     0
 10
1430.492871713336
 20
-1040.512427362744
 30
0.0
 40
50.0
  1
962
  0
ENDBLK
  5
B01
  8
MASSE
  0
BLOCK
  8
0
  2
*D40
 70
     1
 10
0.0
 20
0.0
 30
0.0
  3
*D40
  1

  0
POINT
  5
2DA
  8
DEFPOINTS
  6
BYBLOCK
 62
     0
 10
1895.136164787766
 20
-1172.905382439423
 30
0.0
  0
POINT
  5
2DB
  8
DEFPOINTS
  6
BYBLOCK
 62
     0
 10
932.4450092023958
 20
-1504.905382439423
 30
0.0
  0
LINE
  5
2DC
  8
0
  6
BYBLOCK
 62
     0
 10
1894.511164787766
 20
-1172.905382439423
 30
0.0
 11
847.7427254111726
 21
-1172.905382439423
 31
0.0
  0
LINE
  5
2DD
  8
0
  6
BYBLOCK
 62
     0
 10
931.8200092023958
 20
-1504.905382439423
 30
0.0
 11
847.7427254111726
 21
-1504.905382439423
 31
0.0
  0
LINE
  5
2DE
  8
0
  6
BYBLOCK
 62
     0
 10
848.9927254111726
 20
-1222.905382439423
 30
0.0
 11
848.9927254111726
 21
-1454.905382439423
 31
0.0
  0
SOLID
  5
2DF
  8
0
  6
BYBLOCK
 62
     0
 10
848.9927254111726
 20
-1172.905382439423
 30
0.0
 11
840.6593920778375
 21
-1222.905382439423
 31
0.0
 12
857.3260587445077
 22
-1222.905382439423
 32
0.0
 13
857.3260587445077
 23
-1222.905382439423
 33
0.0
  0
SOLID
  5
2E0
  8
0
  6
BYBLOCK
 62
     0
 10
848.9927254111726
 20
-1504.905382439423
 30
0.0
 11
840.6593920778375
 21
-1454.905382439423
 31
0.0
 12
857.3260587445077
 22
-1454.905382439423
 32
0.0
 13
857.3260587445077
 23
-1454.905382439423
 33
0.0
  0
TEXT
  5
2E1
  8
0
  6
BYBLOCK
 62
     0
 10
848.3677254111726
 20
-1405.655382439423
 30
0.0
 40
50.0
  1
332
 50
90.0
  0
ENDBLK
  5
B03
  8
MASSE
  0
BLOCK
  8
0
  2
*D41
 70
     1
 10
0.0
 20
0.0
 30
0.0
  3
*D41
  1

  0
POINT
  5
2E6
  8
DEFPOINTS
  6
BYBLOCK
 62
     0
 10
2309.211041899595
 20
-1172.905382358059
 30
0.0
  0
POINT
  5
2E7
  8
DEFPOINTS
  6
BYBLOCK
 62
     0
 10
2309.211041899595
 20
-1672.905382358059
 30
0.0
  0
LINE
  5
2E8
  8
0
  6
BYBLOCK
 62
     0
 10
2309.836041899595
 20
-1172.905382358059
 30
0.0
 11
2415.45863460218
 21
-1172.905382358059
 31
0.0
  0
LINE
  5
2E9
  8
0
  6
BYBLOCK
 62
     0
 10
2309.836041899595
 20
-1672.905382358059
 30
0.0
 11
2415.45863460218
 21
-1672.905382358059
 31
0.0
  0
LINE
  5
2EA
  8
0
  6
BYBLOCK
 62
     0
 10
2414.20863460218
 20
-1222.905382358059
 30
0.0
 11
2414.20863460218
 21
-1622.905382358059
 31
0.0
  0
SOLID
  5
2EB
  8
0
  6
BYBLOCK
 62
     0
 10
2414.20863460218
 20
-1172.905382358059
 30
0.0
 11
2405.875301268845
 21
-1222.905382358059
 31
0.0
 12
2422.541967935515
 22
-1222.905382358059
 32
0.0
 13
2422.541967935515
 23
-1222.905382358059
 33
0.0
  0
SOLID
  5
2EC
  8
0
  6
BYBLOCK
 62
     0
 10
2414.20863460218
 20
-1672.905382358059
 30
0.0
 11
2405.875301268845
 21
-1622.905382358059
 31
0.0
 12
2422.541967935515
 22
-1622.905382358059
 32
0.0
 13
2422.541967935515
 23
-1622.905382358059
 33
0.0
  0
TEXT
  5
2ED
  8
0
  6
BYBLOCK
 62
     0
 10
2413.58363460218
 20
-1481.155382358059
 30
0.0
 40
50.0
  1
500
 50
90.0
  0
ENDBLK
  5
B05
  8
MASSE
  0
BLOCK
  8
0
  2
*D42
 70
     1
 10
0.0
 20
0.0
 30
0.0
  3
*D42
  1

  0
TEXT
  5
2F2
  8
0
  6
BYBLOCK
 62
     0
 10
2049.762899638765
 20
-1778.691184404177
 30
0.0
 40
50.0
  1
60\U+00B0
 50
357.0072774396899
  0
POINT
  5
2F3
  8
DEFPOINTS
  6
BYBLOCK
 62
     0
 10
1978.588449197011
 20
-2252.905382358059
 30
0.0
  0
POINT
  5
2F4
  8
DEFPOINTS
  6
BYBLOCK
 62
     0
 10
1978.588449197011
 20
-2252.905382358059
 30
0.0
  0
POINT
  5
2F5
  8
DEFPOINTS
  6
BYBLOCK
 62
     0
 10
1978.588449197011
 20
-1672.905382358059
 30
0.0
  0
POINT
  5
2F6
  8
DEFPOINTS
  6
BYBLOCK
 62
     0
 10
1476.293715002036
 20
-1962.905382358059
 30
0.0
  0
SOLID
  5
2F7
  8
0
  6
BYBLOCK
 62
     0
 10
1978.588449197011
 20
-1774.061789855657
 30
0.0
 11
1929.091716443798
 21
-1784.994213704077
 31
0.0
 12
1928.221564533674
 22
-1768.350277467982
 32
0.0
 13
1928.221564533674
 23
-1768.350277467982
 33
0.0
  0
SOLID
  5
2F8
  8
0
  6
BYBLOCK
 62
     0
 10
1563.897733650526
 20
-2013.483586106858
 30
0.0
 11
1584.134861160438
 21
-1967.00882828509
 31
0.0
 12
1598.113856804803
 22
-1976.084370062457
 32
0.0
 13
1598.113856804803
 23
-1976.084370062457
 33
0.0
  0
ARC
  5
2F9
  8
0
  6
BYBLOCK
 62
     0
 10
1978.588449197011
 20
-2252.905382358059
 30
0.0
 40
478.8435925024026
 50
95.9854451206202
 51
144.0145548793798
  0
ARC
  5
2FA
  8
0
  6
BYBLOCK
 62
     0
 10
1978.588449197011
 20
-2252.905382358059
 30
0.0
 40
478.8435925024026
 50
81.53144438349631
 51
90.0
  0
LINE
  5
2FB
  8
0
  6
BYBLOCK
 62
     0
 10
2049.106121333285
 20
-1779.282701316402
 30
0.0
 11
2158.207123360865
 21
-1784.986547087265
 31
0.0
  0
ENDBLK
  5
B07
  8
MASSE
  0
BLOCK
  8
0
  2
*D43
 70
     1
 10
0.0
 20
0.0
 30
0.0
  3
*D43
  1

  0
TEXT
  5
300
  8
0
  6
BYBLOCK
 62
     0
 10
1104.298354007926
 20
-1826.288976045733
 30
0.0
 40
50.0
  1
128\U+00B0
 50
303.7453223327624
  0
POINT
  5
301
  8
DEFPOINTS
  6
BYBLOCK
 62
     0
 10
1043.281013109817
 20
-1712.905382358059
 30
0.0
  0
POINT
  5
302
  8
DEFPOINTS
  6
BYBLOCK
 62
     0
 10
1476.293715002036
 20
-1962.905382358059
 30
0.0
  0
POINT
  5
303
  8
DEFPOINTS
  6
BYBLOCK
 62
     0
 10
1043.281013109817
 20
-1712.905382358059
 30
0.0
  0
POINT
  5
304
  8
DEFPOINTS
  6
BYBLOCK
 62
     0
 10
989.7920551676261
 20
-1306.616410083298
 30
0.0
  0
SOLID
  5
305
  8
0
  6
BYBLOCK
 62
     0
 10
1026.547765416591
 20
-1585.803747372994
 30
0.0
 11
1076.985325582732
 21
-1580.754295033242
 31
0.0
 12
1075.896631197454
 22
-1597.385366024412
 32
0.0
 13
1075.896631197454
 23
-1597.385366024412
 33
0.0
  0
SOLID
  5
306
  8
0
  6
BYBLOCK
 62
     0
 10
1154.30407555938
 20
-1777.004577349571
 30
0.0
 11
1162.489048474329
 21
-1726.980076724117
 31
0.0
 12
1178.270779870968
 22
-1732.338689595208
 32
0.0
 13
1178.270779870968
 23
-1732.338689595208
 33
0.0
  0
ARC
  5
307
  8
0
  6
BYBLOCK
 62
     0
 10
1043.281013109817
 20
-1712.905382358059
 30
0.0
 40
128.1983899830239
 50
352.4906446655252
 51
75.00935533447509
  0
ARC
  5
308
  8
0
  6
BYBLOCK
 62
     0
 10
1043.281013109817
 20
-1712.905382358059
 30
0.0
 40
128.1983899830239
 50
297.9822631766826
 51
330.0
  0
LINE
  5
309
  8
0
  6
BYBLOCK
 62
     0
 10
1103.431468185376
 20
-1826.116468159948
 30
0.0
 11
1187.451198533864
 21
-1951.883106868977
 31
0.0
  0
ENDBLK
  5
B09
  8
MASSE
  0
BLOCK
  8
0
  2
*D44
 70
     1
 10
0.0
 20
0.0
 30
0.0
  3
*D44
  1

  0
POINT
  5
30E
  8
DEFPOINTS
  6
BYBLOCK
 62
     0
 10
879.0826106329255
 20
-1997.305357969678
 30
0.0
  0
POINT
  5
30F
  8
DEFPOINTS
  6
BYBLOCK
 62
     0
 10
1312.095312525145
 20
-2247.305357969678
 30
0.0
  0
LINE
  5
310
  8
0
  6
BYBLOCK
 62
     0
 10
878.7701106329255
 20
-1997.846623847044
 30
0.0
 11
826.7592081560341
 21
-2087.932149484529
 31
0.0
  0
LINE
  5
311
  8
0
  6
BYBLOCK
 62
     0
 10
1311.782812525145
 20
-2247.846623847044
 30
0.0
 11
1259.771910048253
 21
-2337.932149484529
 31
0.0
  0
LINE
  5
312
  8
0
  6
BYBLOCK
 62
     0
 10
870.685478345256
 20
-2111.849617729799
 30
0.0
 11
1217.095639859031
 21
-2311.849617729799
 31
0.0
  0
SOLID
  5
313
  8
0
  6
BYBLOCK
 62
     0
 10
827.3842081560341
 20
-2086.849617729799
 30
0.0
 11
866.5188116785885
 21
-2119.066496094671
 31
0.0
 12
874.8521450119235
 22
-2104.632739364927
 32
0.0
 13
874.8521450119235
 23
-2104.632739364927
 33
0.0
  0
SOLID
  5
314
  8
0
  6
BYBLOCK
 62
     0
 10
1260.396910048253
 20
-2336.849617729799
 30
0.0
 11
1212.928973192364
 21
-2319.066496094671
 31
0.0
 12
1221.262306525699
 22
-2304.632739364927
 32
0.0
 13
1221.262306525699
 23
-2304.632739364927
 33
0.0
  0
TEXT
  5
315
  8
0
  6
BYBLOCK
 62
     0
 10
993.7570793317001
 20
-2182.183351852434
 30
0.0
 40
50.0
  1
500
 50
330.0
  0
ENDBLK
  5
B0B
  8
MASSE
  0
BLOCK
  8
0
  2
*D45
 70
     1
 10
0.0
 20
0.0
 30
0.0
  3
*D45
  1

  0
TEXT
  5
31A
  8
0
  6
BYBLOCK
 62
     0
 10
1125.095769224235
 20
-1568.036777015571
 30
0.0
 40
50.0
  1
128\U+00B0
 50
303.7500000000002
  0
POINT
  5
31B
  8
DEFPOINTS
  6
BYBLOCK
 62
     0
 10
1043.281013109817
 20
-1712.905382358059
 30
0.0
  0
POINT
  5
31C
  8
DEFPOINTS
  6
BYBLOCK
 62
     0
 10
1476.293715002036
 20
-1962.905382358059
 30
0.0
  0
POINT
  5
31D
  8
DEFPOINTS
  6
BYBLOCK
 62
     0
 10
1043.281013109817
 20
-1712.905382358059
 30
0.0
  0
POINT
  5
31E
  8
DEFPOINTS
  6
BYBLOCK
 62
     0
 10
989.7920551676261
 20
-1306.616410083298
 30
0.0
  0
SOLID
  5
31F
  8
0
  6
BYBLOCK
 62
     0
 10
1023.977994669888
 20
-1566.284400654965
 30
0.0
 11
978.6912306349349
 21
-1589.056169310187
 31
0.0
 12
973.7537253432383
 22
-1573.137663749917
 32
0.0
 13
973.7537253432383
 23
-1573.137663749917
 33
0.0
  0
SOLID
  5
320
  8
0
  6
BYBLOCK
 62
     0
 10
1171.354191790419
 20
-1786.848466545276
 30
0.0
 11
1145.802606512128
 21
-1830.627010767425
 31
0.0
 12
1132.985326509174
 22
-1819.973602340834
 32
0.0
 13
1132.985326509174
 23
-1819.973602340834
 33
0.0
  0
ARC
  5
321
  8
0
  6
BYBLOCK
 62
     0
 10
1043.281013109817
 20
-1712.905382358059
 30
0.0
 40
147.8861683744333
 50
116.9650540613589
 51
137.0220578787175
  0
ARC
  5
322
  8
0
  6
BYBLOCK
 62
     0
 10
1043.281013109817
 20
-1712.905382358059
 30
0.0
 40
147.8861683744333
 50
290.4779421212829
 51
310.5349459386415
  0
ARC
  5
323
  8
0
  6
BYBLOCK
 62
     0
 10
1043.281013109817
 20
-1712.905382358059
 30
0.0
 40
147.8861683744333
 50
310.5349459386415
 51
116.9650540613589
  0
ENDBLK
  5
B0D
  8
MASSE
  0
BLOCK
  8
0
  2
*D46
 70
     1
 10
0.0
 20
0.0
 30
0.0
  3
*D46
  1

  0
POINT
  5
442
  8
DEFPOINTS
  6
BYBLOCK
 62
     0
 10
3692.439082345123
 20
-2766.174672682701
 30
0.0
  0
POINT
  5
443
  8
DEFPOINTS
  6
BYBLOCK
 62
     0
 10
3692.439082345123
 20
-3266.174672682701
 30
0.0
  0
LINE
  5
444
  8
0
  6
BYBLOCK
 62
     0
 10
3693.064082345123
 20
-2766.174672682701
 30
0.0
 11
3798.686675047708
 21
-2766.174672682701
 31
0.0
  0
LINE
  5
445
  8
0
  6
BYBLOCK
 62
     0
 10
3693.064082345123
 20
-3266.174672682701
 30
0.0
 11
3798.686675047708
 21
-3266.174672682701
 31
0.0
  0
LINE
  5
446
  8
0
  6
BYBLOCK
 62
     0
 10
3797.436675047708
 20
-2768.674672682701
 30
0.0
 11
3797.436675047708
 21
-3263.674672682701
 31
0.0
  0
SOLID
  5
447
  8
0
  6
BYBLOCK
 62
     0
 10
3797.436675047708
 20
-2766.174672682701
 30
0.0
 11
3797.020008381041
 21
-2768.674672682701
 31
0.0
 12
3797.853341714374
 22
-2768.674672682701
 32
0.0
 13
3797.853341714374
 23
-2768.674672682701
 33
0.0
  0
SOLID
  5
448
  8
0
  6
BYBLOCK
 62
     0
 10
3797.436675047708
 20
-3266.174672682701
 30
0.0
 11
3797.020008381041
 21
-3263.674672682701
 31
0.0
 12
3797.853341714374
 22
-3263.674672682701
 32
0.0
 13
3797.853341714374
 23
-3263.674672682701
 33
0.0
  0
TEXT
  5
449
  8
0
  6
BYBLOCK
 62
     0
 10
3796.811675047708
 20
-3019.087172682701
 30
0.0
 40
2.5
  1
500
 50
90.0
  0
ENDBLK
  5
B0F
  8
0
  0
BLOCK
  8
0
  2
*D47
 70
     1
 10
0.0
 20
0.0
 30
0.0
  3
*D47
  1

  0
POINT
  5
44E
  8
DEFPOINTS
  6
BYBLOCK
 62
     0
 10
3693.064082345123
 20
-2766.174672682701
 30
0.0
  0
POINT
  5
44F
  8
DEFPOINTS
  6
BYBLOCK
 62
     0
 10
3693.064082345123
 20
-3266.174672682701
 30
0.0
  0
LINE
  5
450
  8
0
  6
BYBLOCK
 62
     0
 10
3693.689082345123
 20
-2766.174672682701
 30
0.0
 11
3798.686675047708
 21
-2766.174672682701
 31
0.0
  0
LINE
  5
451
  8
0
  6
BYBLOCK
 62
     0
 10
3693.689082345123
 20
-3266.174672682701
 30
0.0
 11
3798.686675047708
 21
-3266.174672682701
 31
0.0
  0
LINE
  5
452
  8
0
  6
BYBLOCK
 62
     0
 10
3797.436675047708
 20
-2816.174672682701
 30
0.0
 11
3797.436675047708
 21
-3216.174672682701
 31
0.0
  0
SOLID
  5
453
  8
0
  6
BYBLOCK
 62
     0
 10
3797.436675047708
 20
-2766.174672682701
 30
0.0
 11
3789.103341714373
 21
-2816.174672682701
 31
0.0
 12
3805.770008381042
 22
-2816.174672682701
 32
0.0
 13
3805.770008381042
 23
-2816.174672682701
 33
0.0
  0
SOLID
  5
454
  8
0
  6
BYBLOCK
 62
     0
 10
3797.436675047708
 20
-3266.174672682701
 30
0.0
 11
3789.103341714373
 21
-3216.174672682701
 31
0.0
 12
3805.770008381042
 22
-3216.174672682701
 32
0.0
 13
3805.770008381042
 23
-3216.174672682701
 33
0.0
  0
TEXT
  5
455
  8
0
  6
BYBLOCK
 62
     0
 10
3796.811675047708
 20
-3074.424672682701
 30
0.0
 40
50.0
  1
500
 50
90.0
  0
ENDBLK
  5
B11
  8
MASSE
  0
BLOCK
  8
0
  2
*D48
 70
     1
 10
0.0
 20
0.0
 30
0.0
  3
*D48
  1

  0
POINT
  5
4A6
  8
DEFPOINTS
  6
BYBLOCK
 62
     0
 10
2011.816489642538
 20
-2766.174672682701
 30
0.0
  0
POINT
  5
4A7
  8
DEFPOINTS
  6
BYBLOCK
 62
     0
 10
2911.816489642538
 20
-2766.174672682701
 30
0.0
  0
LINE
  5
4A8
  8
0
  6
BYBLOCK
 62
     0
 10
2011.816489642538
 20
-2765.549672682701
 30
0.0
 11
2011.816489642538
 21
-2679.897146122205
 31
0.0
  0
LINE
  5
4A9
  8
0
  6
BYBLOCK
 62
     0
 10
2911.816489642538
 20
-2765.549672682701
 30
0.0
 11
2911.816489642538
 21
-2679.897146122205
 31
0.0
  0
LINE
  5
4AA
  8
0
  6
BYBLOCK
 62
     0
 10
2061.816489642538
 20
-2681.147146122205
 30
0.0
 11
2861.816489642538
 21
-2681.147146122205
 31
0.0
  0
SOLID
  5
4AB
  8
0
  6
BYBLOCK
 62
     0
 10
2011.816489642538
 20
-2681.147146122205
 30
0.0
 11
2061.816489642538
 21
-2689.48047945554
 31
0.0
 12
2061.816489642538
 22
-2672.813812788871
 32
0.0
 13
2061.816489642538
 23
-2672.813812788871
 33
0.0
  0
SOLID
  5
4AC
  8
0
  6
BYBLOCK
 62
     0
 10
2911.816489642538
 20
-2681.147146122205
 30
0.0
 11
2861.816489642538
 21
-2689.48047945554
 31
0.0
 12
2861.816489642538
 22
-2672.813812788871
 32
0.0
 13
2861.816489642538
 23
-2672.813812788871
 33
0.0
  0
TEXT
  5
4AD
  8
0
  6
BYBLOCK
 62
     0
 10
2403.566489642538
 20
-2680.522146122205
 30
0.0
 40
50.0
  1
900
  0
ENDBLK
  5
B13
  8
MASSE
  0
BLOCK
  8
0
  2
*D49
 70
     1
 10
0.0
 20
0.0
 30
0.0
  3
*D49
  1

  0
POINT
  5
4B2
  8
DEFPOINTS
  6
BYBLOCK
 62
     0
 10
2911.816489642538
 20
-2766.174672682701
 30
0.0
  0
POINT
  5
4B3
  8
DEFPOINTS
  6
BYBLOCK
 62
     0
 10
3361.816489642538
 20
-2766.174672682701
 30
0.0
  0
LINE
  5
4B4
  8
0
  6
BYBLOCK
 62
     0
 10
2911.816489642538
 20
-2765.549672682701
 30
0.0
 11
2911.816489642538
 21
-2679.897146122205
 31
0.0
  0
LINE
  5
4B5
  8
0
  6
BYBLOCK
 62
     0
 10
3361.816489642538
 20
-2765.549672682701
 30
0.0
 11
3361.816489642538
 21
-2679.897146122205
 31
0.0
  0
LINE
  5
4B6
  8
0
  6
BYBLOCK
 62
     0
 10
2961.816489642538
 20
-2681.147146122205
 30
0.0
 11
3311.816489642538
 21
-2681.147146122205
 31
0.0
  0
SOLID
  5
4B7
  8
0
  6
BYBLOCK
 62
     0
 10
2911.816489642538
 20
-2681.147146122205
 30
0.0
 11
2961.816489642538
 21
-2689.48047945554
 31
0.0
 12
2961.816489642538
 22
-2672.813812788871
 32
0.0
 13
2961.816489642538
 23
-2672.813812788871
 33
0.0
  0
SOLID
  5
4B8
  8
0
  6
BYBLOCK
 62
     0
 10
3361.816489642538
 20
-2681.147146122205
 30
0.0
 11
3311.816489642538
 21
-2689.48047945554
 31
0.0
 12
3311.816489642538
 22
-2672.813812788871
 32
0.0
 13
3311.816489642538
 23
-2672.813812788871
 33
0.0
  0
TEXT
  5
4B9
  8
0
  6
BYBLOCK
 62
     0
 10
3074.316489642538
 20
-2680.522146122205
 30
0.0
 40
50.0
  1
450
  0
ENDBLK
  5
B15
  8
MASSE
  0
BLOCK
  8
0
  2
*D50
 70
     1
 10
0.0
 20
0.0
 30
0.0
  3
*D50
  1

  0
POINT
  5
4BE
  8
DEFPOINTS
  6
BYBLOCK
 62
     0
 10
2011.816489642538
 20
-2765.549672682701
 30
0.0
  0
POINT
  5
4BF
  8
DEFPOINTS
  6
BYBLOCK
 62
     0
 10
1111.816489642538
 20
-2766.174672682701
 30
0.0
  0
LINE
  5
4C0
  8
0
  6
BYBLOCK
 62
     0
 10
2011.816489642538
 20
-2764.924672682701
 30
0.0
 11
2011.816489642538
 21
-2678.647146122205
 31
0.0
  0
LINE
  5
4C1
  8
0
  6
BYBLOCK
 62
     0
 10
1111.816489642538
 20
-2765.549672682701
 30
0.0
 11
1111.816489642538
 21
-2678.647146122205
 31
0.0
  0
LINE
  5
4C2
  8
0
  6
BYBLOCK
 62
     0
 10
1961.816489642538
 20
-2679.897146122205
 30
0.0
 11
1161.816489642538
 21
-2679.897146122205
 31
0.0
  0
SOLID
  5
4C3
  8
0
  6
BYBLOCK
 62
     0
 10
2011.816489642538
 20
-2679.897146122205
 30
0.0
 11
1961.816489642538
 21
-2671.563812788871
 31
0.0
 12
1961.816489642538
 22
-2688.23047945554
 32
0.0
 13
1961.816489642538
 23
-2688.23047945554
 33
0.0
  0
SOLID
  5
4C4
  8
0
  6
BYBLOCK
 62
     0
 10
1111.816489642538
 20
-2679.897146122205
 30
0.0
 11
1161.816489642538
 21
-2671.563812788871
 31
0.0
 12
1161.816489642538
 22
-2688.23047945554
 32
0.0
 13
1161.816489642538
 23
-2688.23047945554
 33
0.0
  0
TEXT
  5
4C5
  8
0
  6
BYBLOCK
 62
     0
 10
1503.566489642538
 20
-2679.272146122205
 30
0.0
 40
50.0
  1
900
  0
ENDBLK
  5
B17
  8
MASSE
  0
BLOCK
  8
0
  2
*D51
 70
     1
 10
0.0
 20
0.0
 30
0.0
  3
*D51
  1

  0
POINT
  5
4CA
  8
DEFPOINTS
  6
BYBLOCK
 62
     0
 10
1111.816489642538
 20
-2765.549672682701
 30
0.0
  0
POINT
  5
4CB
  8
DEFPOINTS
  6
BYBLOCK
 62
     0
 10
211.8164896425379
 20
-2766.174672682701
 30
0.0
  0
LINE
  5
4CC
  8
0
  6
BYBLOCK
 62
     0
 10
1111.816489642538
 20
-2764.924672682701
 30
0.0
 11
1111.816489642538
 21
-2677.397146122205
 31
0.0
  0
LINE
  5
4CD
  8
0
  6
BYBLOCK
 62
     0
 10
211.8164896425378
 20
-2765.549672682701
 30
0.0
 11
211.8164896425378
 21
-2677.397146122205
 31
0.0
  0
LINE
  5
4CE
  8
0
  6
BYBLOCK
 62
     0
 10
1061.816489642538
 20
-2678.647146122205
 30
0.0
 11
261.8164896425378
 21
-2678.647146122205
 31
0.0
  0
SOLID
  5
4CF
  8
0
  6
BYBLOCK
 62
     0
 10
1111.816489642538
 20
-2678.647146122205
 30
0.0
 11
1061.816489642538
 21
-2670.313812788871
 31
0.0
 12
1061.816489642538
 22
-2686.98047945554
 32
0.0
 13
1061.816489642538
 23
-2686.98047945554
 33
0.0
  0
SOLID
  5
4D0
  8
0
  6
BYBLOCK
 62
     0
 10
211.8164896425378
 20
-2678.647146122205
 30
0.0
 11
261.8164896425378
 21
-2670.313812788871
 31
0.0
 12
261.8164896425378
 22
-2686.98047945554
 32
0.0
 13
261.8164896425378
 23
-2686.98047945554
 33
0.0
  0
TEXT
  5
4D1
  8
0
  6
BYBLOCK
 62
     0
 10
603.5664896425378
 20
-2678.022146122205
 30
0.0
 40
50.0
  1
900
  0
ENDBLK
  5
B19
  8
MASSE
  0
BLOCK
  8
0
  2
*D52
 70
     1
 10
0.0
 20
0.0
 30
0.0
  3
*D52
  1

  0
POINT
  5
4D6
  8
DEFPOINTS
  6
BYBLOCK
 62
     0
 10
211.8164896425379
 20
-2766.174672682701
 30
0.0
  0
POINT
  5
4D7
  8
DEFPOINTS
  6
BYBLOCK
 62
     0
 10
-688.1835103574622
 20
-2766.174672682701
 30
0.0
  0
LINE
  5
4D8
  8
0
  6
BYBLOCK
 62
     0
 10
211.8164896425379
 20
-2765.549672682701
 30
0.0
 11
211.8164896425379
 21
-2677.397146122205
 31
0.0
  0
LINE
  5
4D9
  8
0
  6
BYBLOCK
 62
     0
 10
-688.1835103574622
 20
-2765.549672682701
 30
0.0
 11
-688.1835103574622
 21
-2677.397146122205
 31
0.0
  0
LINE
  5
4DA
  8
0
  6
BYBLOCK
 62
     0
 10
161.8164896425379
 20
-2678.647146122205
 30
0.0
 11
-638.1835103574622
 21
-2678.647146122205
 31
0.0
  0
SOLID
  5
4DB
  8
0
  6
BYBLOCK
 62
     0
 10
211.8164896425379
 20
-2678.647146122205
 30
0.0
 11
161.8164896425379
 21
-2670.313812788871
 31
0.0
 12
161.8164896425379
 22
-2686.98047945554
 32
0.0
 13
161.8164896425379
 23
-2686.98047945554
 33
0.0
  0
SOLID
  5
4DC
  8
0
  6
BYBLOCK
 62
     0
 10
-688.1835103574622
 20
-2678.647146122205
 30
0.0
 11
-638.1835103574622
 21
-2670.313812788871
 31
0.0
 12
-638.1835103574622
 22
-2686.98047945554
 32
0.0
 13
-638.1835103574622
 23
-2686.98047945554
 33
0.0
  0
TEXT
  5
4DD
  8
0
  6
BYBLOCK
 62
     0
 10
-296.4335103574622
 20
-2678.022146122205
 30
0.0
 40
50.0
  1
900
  0
ENDBLK
  5
B1B
  8
MASSE
  0
BLOCK
  8
0
  2
*D53
 70
     1
 10
0.0
 20
0.0
 30
0.0
  3
*D53
  1

  0
POINT
  5
4E1
  8
DEFPOINTS
  6
BYBLOCK
 62
     0
 10
3699.056326110098
 20
-3500.63255820879
 30
0.0
  0
POINT
  5
4E2
  8
DEFPOINTS
  6
BYBLOCK
 62
     0
 10
3699.056326110098
 20
-4000.63255820879
 30
0.0
  0
LINE
  5
4E3
  8
0
  6
BYBLOCK
 62
     0
 10
3699.681326110098
 20
-3500.63255820879
 30
0.0
 11
3804.678918812683
 21
-3500.63255820879
 31
0.0
  0
LINE
  5
4E4
  8
0
  6
BYBLOCK
 62
     0
 10
3699.681326110098
 20
-4000.63255820879
 30
0.0
 11
3804.678918812683
 21
-4000.63255820879
 31
0.0
  0
LINE
  5
4E5
  8
0
  6
BYBLOCK
 62
     0
 10
3803.428918812683
 20
-3550.63255820879
 30
0.0
 11
3803.428918812683
 21
-3950.63255820879
 31
0.0
  0
SOLID
  5
4E6
  8
0
  6
BYBLOCK
 62
     0
 10
3803.428918812683
 20
-3500.63255820879
 30
0.0
 11
3795.095585479348
 21
-3550.63255820879
 31
0.0
 12
3811.762252146018
 22
-3550.63255820879
 32
0.0
 13
3811.762252146018
 23
-3550.63255820879
 33
0.0
  0
SOLID
  5
4E7
  8
0
  6
BYBLOCK
 62
     0
 10
3803.428918812683
 20
-4000.63255820879
 30
0.0
 11
3795.095585479348
 21
-3950.63255820879
 31
0.0
 12
3811.762252146018
 22
-3950.63255820879
 32
0.0
 13
3811.762252146018
 23
-3950.63255820879
 33
0.0
  0
TEXT
  5
4E8
  8
0
  6
BYBLOCK
 62
     0
 10
3802.803918812683
 20
-3808.88255820879
 30
0.0
 40
50.0
  1
500
 50
90.0
  0
ENDBLK
  5
B1D
  8
MASSE
  0
BLOCK
  8
0
  2
*D54
 70
     1
 10
0.0
 20
0.0
 30
0.0
  3
*D54
  1

  0
POINT
  5
4EC
  8
DEFPOINTS
  6
BYBLOCK
 62
     0
 10
2017.808733407513
 20
-3500.63255820879
 30
0.0
  0
POINT
  5
4ED
  8
DEFPOINTS
  6
BYBLOCK
 62
     0
 10
2917.808733407513
 20
-3500.63255820879
 30
0.0
  0
LINE
  5
4EE
  8
0
  6
BYBLOCK
 62
     0
 10
2017.808733407513
 20
-3500.00755820879
 30
0.0
 11
2017.808733407513
 21
-3414.355031648294
 31
0.0
  0
LINE
  5
4EF
  8
0
  6
BYBLOCK
 62
     0
 10
2917.808733407513
 20
-3500.00755820879
 30
0.0
 11
2917.808733407513
 21
-3414.355031648294
 31
0.0
  0
LINE
  5
4F0
  8
0
  6
BYBLOCK
 62
     0
 10
2067.808733407513
 20
-3415.605031648294
 30
0.0
 11
2867.808733407513
 21
-3415.605031648294
 31
0.0
  0
SOLID
  5
4F1
  8
0
  6
BYBLOCK
 62
     0
 10
2017.808733407513
 20
-3415.605031648294
 30
0.0
 11
2067.808733407513
 21
-3423.938364981629
 31
0.0
 12
2067.808733407513
 22
-3407.271698314959
 32
0.0
 13
2067.808733407513
 23
-3407.271698314959
 33
0.0
  0
SOLID
  5
4F2
  8
0
  6
BYBLOCK
 62
     0
 10
2917.808733407513
 20
-3415.605031648294
 30
0.0
 11
2867.808733407513
 21
-3423.938364981629
 31
0.0
 12
2867.808733407513
 22
-3407.271698314959
 32
0.0
 13
2867.808733407513
 23
-3407.271698314959
 33
0.0
  0
TEXT
  5
4F3
  8
0
  6
BYBLOCK
 62
     0
 10
2409.558733407513
 20
-3414.980031648294
 30
0.0
 40
50.0
  1
900
  0
ENDBLK
  5
B1F
  8
MASSE
  0
BLOCK
  8
0
  2
*D55
 70
     1
 10
0.0
 20
0.0
 30
0.0
  3
*D55
  1

  0
POINT
  5
4F7
  8
DEFPOINTS
  6
BYBLOCK
 62
     0
 10
2917.808733407513
 20
-3500.63255820879
 30
0.0
  0
POINT
  5
4F8
  8
DEFPOINTS
  6
BYBLOCK
 62
     0
 10
3367.808733407513
 20
-3500.63255820879
 30
0.0
  0
LINE
  5
4F9
  8
0
  6
BYBLOCK
 62
     0
 10
2917.808733407513
 20
-3500.00755820879
 30
0.0
 11
2917.808733407513
 21
-3414.355031648294
 31
0.0
  0
LINE
  5
4FA
  8
0
  6
BYBLOCK
 62
     0
 10
3367.808733407513
 20
-3500.00755820879
 30
0.0
 11
3367.808733407513
 21
-3414.355031648294
 31
0.0
  0
LINE
  5
4FB
  8
0
  6
BYBLOCK
 62
     0
 10
2967.808733407513
 20
-3415.605031648294
 30
0.0
 11
3317.808733407513
 21
-3415.605031648294
 31
0.0
  0
SOLID
  5
4FC
  8
0
  6
BYBLOCK
 62
     0
 10
2917.808733407513
 20
-3415.605031648294
 30
0.0
 11
2967.808733407513
 21
-3423.938364981629
 31
0.0
 12
2967.808733407513
 22
-3407.271698314959
 32
0.0
 13
2967.808733407513
 23
-3407.271698314959
 33
0.0
  0
SOLID
  5
4FD
  8
0
  6
BYBLOCK
 62
     0
 10
3367.808733407513
 20
-3415.605031648294
 30
0.0
 11
3317.808733407513
 21
-3423.938364981629
 31
0.0
 12
3317.808733407513
 22
-3407.271698314959
 32
0.0
 13
3317.808733407513
 23
-3407.271698314959
 33
0.0
  0
TEXT
  5
4FE
  8
0
  6
BYBLOCK
 62
     0
 10
3080.308733407513
 20
-3414.980031648294
 30
0.0
 40
50.0
  1
450
  0
ENDBLK
  5
B21
  8
MASSE
  0
BLOCK
  8
0
  2
*D56
 70
     1
 10
0.0
 20
0.0
 30
0.0
  3
*D56
  1

  0
POINT
  5
502
  8
DEFPOINTS
  6
BYBLOCK
 62
     0
 10
2017.808733407513
 20
-3500.00755820879
 30
0.0
  0
POINT
  5
503
  8
DEFPOINTS
  6
BYBLOCK
 62
     0
 10
1117.808733407513
 20
-3500.63255820879
 30
0.0
  0
LINE
  5
504
  8
0
  6
BYBLOCK
 62
     0
 10
2017.808733407513
 20
-3499.38255820879
 30
0.0
 11
2017.808733407513
 21
-3413.105031648294
 31
0.0
  0
LINE
  5
505
  8
0
  6
BYBLOCK
 62
     0
 10
1117.808733407513
 20
-3500.00755820879
 30
0.0
 11
1117.808733407513
 21
-3413.105031648294
 31
0.0
  0
LINE
  5
506
  8
0
  6
BYBLOCK
 62
     0
 10
1967.808733407513
 20
-3414.355031648294
 30
0.0
 11
1167.808733407513
 21
-3414.355031648294
 31
0.0
  0
SOLID
  5
507
  8
0
  6
BYBLOCK
 62
     0
 10
2017.808733407513
 20
-3414.355031648294
 30
0.0
 11
1967.808733407513
 21
-3406.021698314959
 31
0.0
 12
1967.808733407513
 22
-3422.688364981629
 32
0.0
 13
1967.808733407513
 23
-3422.688364981629
 33
0.0
  0
SOLID
  5
508
  8
0
  6
BYBLOCK
 62
     0
 10
1117.808733407513
 20
-3414.355031648294
 30
0.0
 11
1167.808733407513
 21
-3406.021698314959
 31
0.0
 12
1167.808733407513
 22
-3422.688364981629
 32
0.0
 13
1167.808733407513
 23
-3422.688364981629
 33
0.0
  0
TEXT
  5
509
  8
0
  6
BYBLOCK
 62
     0
 10
1509.558733407513
 20
-3413.730031648294
 30
0.0
 40
50.0
  1
900
  0
ENDBLK
  5
B23
  8
MASSE
  0
BLOCK
  8
0
  2
*D57
 70
     1
 10
0.0
 20
0.0
 30
0.0
  3
*D57
  1

  0
POINT
  5
50D
  8
DEFPOINTS
  6
BYBLOCK
 62
     0
 10
1117.808733407513
 20
-3500.00755820879
 30
0.0
  0
POINT
  5
50E
  8
DEFPOINTS
  6
BYBLOCK
 62
     0
 10
217.8087334075131
 20
-3500.63255820879
 30
0.0
  0
LINE
  5
50F
  8
0
  6
BYBLOCK
 62
     0
 10
1117.808733407513
 20
-3499.38255820879
 30
0.0
 11
1117.808733407513
 21
-3411.855031648294
 31
0.0
  0
LINE
  5
510
  8
0
  6
BYBLOCK
 62
     0
 10
217.8087334075131
 20
-3500.00755820879
 30
0.0
 11
217.8087334075131
 21
-3411.855031648294
 31
0.0
  0
LINE
  5
511
  8
0
  6
BYBLOCK
 62
     0
 10
1067.808733407513
 20
-3413.105031648294
 30
0.0
 11
267.8087334075131
 21
-3413.105031648294
 31
0.0
  0
SOLID
  5
512
  8
0
  6
BYBLOCK
 62
     0
 10
1117.808733407513
 20
-3413.105031648294
 30
0.0
 11
1067.808733407513
 21
-3404.771698314959
 31
0.0
 12
1067.808733407513
 22
-3421.438364981629
 32
0.0
 13
1067.808733407513
 23
-3421.438364981629
 33
0.0
  0
SOLID
  5
513
  8
0
  6
BYBLOCK
 62
     0
 10
217.8087334075131
 20
-3413.105031648294
 30
0.0
 11
267.8087334075131
 21
-3404.771698314959
 31
0.0
 12
267.8087334075131
 22
-3421.438364981629
 32
0.0
 13
267.8087334075131
 23
-3421.438364981629
 33
0.0
  0
TEXT
  5
514
  8
0
  6
BYBLOCK
 62
     0
 10
609.5587334075131
 20
-3412.480031648294
 30
0.0
 40
50.0
  1
900
  0
ENDBLK
  5
B25
  8
MASSE
  0
BLOCK
  8
0
  2
*D58
 70
     1
 10
0.0
 20
0.0
 30
0.0
  3
*D58
  1

  0
POINT
  5
518
  8
DEFPOINTS
  6
BYBLOCK
 62
     0
 10
217.8087334075131
 20
-3500.63255820879
 30
0.0
  0
POINT
  5
519
  8
DEFPOINTS
  6
BYBLOCK
 62
     0
 10
-682.191266592487
 20
-3500.63255820879
 30
0.0
  0
LINE
  5
51A
  8
0
  6
BYBLOCK
 62
     0
 10
217.8087334075131
 20
-3500.00755820879
 30
0.0
 11
217.8087334075131
 21
-3411.855031648294
 31
0.0
  0
LINE
  5
51B
  8
0
  6
BYBLOCK
 62
     0
 10
-682.191266592487
 20
-3500.00755820879
 30
0.0
 11
-682.191266592487
 21
-3411.855031648294
 31
0.0
  0
LINE
  5
51C
  8
0
  6
BYBLOCK
 62
     0
 10
167.8087334075131
 20
-3413.105031648294
 30
0.0
 11
-632.191266592487
 21
-3413.105031648294
 31
0.0
  0
SOLID
  5
51D
  8
0
  6
BYBLOCK
 62
     0
 10
217.8087334075131
 20
-3413.105031648294
 30
0.0
 11
167.8087334075131
 21
-3404.771698314959
 31
0.0
 12
167.8087334075131
 22
-3421.438364981629
 32
0.0
 13
167.8087334075131
 23
-3421.438364981629
 33
0.0
  0
SOLID
  5
51E
  8
0
  6
BYBLOCK
 62
     0
 10
-682.191266592487
 20
-3413.105031648294
 30
0.0
 11
-632.191266592487
 21
-3404.771698314959
 31
0.0
 12
-632.191266592487
 22
-3421.438364981629
 32
0.0
 13
-632.191266592487
 23
-3421.438364981629
 33
0.0
  0
TEXT
  5
51F
  8
0
  6
BYBLOCK
 62
     0
 10
-290.441266592487
 20
-3412.480031648294
 30
0.0
 40
50.0
  1
900
  0
ENDBLK
  5
B27
  8
MASSE
  0
BLOCK
  8
0
  2
*D59
 70
     1
 10
0.0
 20
0.0
 30
0.0
  3
*D59
  1

  0
POINT
  5
524
  8
DEFPOINTS
  6
BYBLOCK
 62
     0
 10
-682.191266592487
 20
-3500.00755820879
 30
0.0
  0
POINT
  5
525
  8
DEFPOINTS
  6
BYBLOCK
 62
     0
 10
-1682.191266592485
 20
-3500.63255820879
 30
0.0
  0
LINE
  5
526
  8
0
  6
BYBLOCK
 62
     0
 10
-682.191266592487
 20
-3499.38255820879
 30
0.0
 11
-682.191266592487
 21
-3410.605031648294
 31
0.0
  0
LINE
  5
527
  8
0
  6
BYBLOCK
 62
     0
 10
-1682.191266592485
 20
-3500.00755820879
 30
0.0
 11
-1682.191266592485
 21
-3410.605031648294
 31
0.0
  0
LINE
  5
528
  8
0
  6
BYBLOCK
 62
     0
 10
-732.191266592487
 20
-3411.855031648294
 30
0.0
 11
-1632.191266592485
 21
-3411.855031648294
 31
0.0
  0
SOLID
  5
529
  8
0
  6
BYBLOCK
 62
     0
 10
-682.191266592487
 20
-3411.855031648294
 30
0.0
 11
-732.191266592487
 21
-3403.521698314959
 31
0.0
 12
-732.191266592487
 22
-3420.188364981629
 32
0.0
 13
-732.191266592487
 23
-3420.188364981629
 33
0.0
  0
SOLID
  5
52A
  8
0
  6
BYBLOCK
 62
     0
 10
-1682.191266592485
 20
-3411.855031648294
 30
0.0
 11
-1632.191266592485
 21
-3403.521698314959
 31
0.0
 12
-1632.191266592485
 22
-3420.188364981629
 32
0.0
 13
-1632.191266592485
 23
-3420.188364981629
 33
0.0
  0
TEXT
  5
52B
  8
0
  6
BYBLOCK
 62
     0
 10
-1252.941266592486
 20
-3411.230031648294
 30
0.0
 40
50.0
  1
1000
  0
ENDBLK
  5
B29
  8
MASSE
  0
BLOCK
  8
0
  2
*D60
 70
     1
 10
0.0
 20
0.0
 30
0.0
  3
*D60
  1

  0
POINT
  5
52F
  8
DEFPOINTS
  6
BYBLOCK
 62
     0
 10
-682.191266592487
 20
-3353.098008468079
 30
0.0
  0
POINT
  5
530
  8
DEFPOINTS
  6
BYBLOCK
 62
     0
 10
-1682.191266592485
 20
-3353.723008468079
 30
0.0
  0
LINE
  5
531
  8
0
  6
BYBLOCK
 62
     0
 10
-682.191266592487
 20
-3352.473008468079
 30
0.0
 11
-682.191266592487
 21
-3263.695481907583
 31
0.0
  0
LINE
  5
532
  8
0
  6
BYBLOCK
 62
     0
 10
-1682.191266592485
 20
-3353.098008468079
 30
0.0
 11
-1682.191266592485
 21
-3263.695481907583
 31
0.0
  0
LINE
  5
533
  8
0
  6
BYBLOCK
 62
     0
 10
-732.191266592487
 20
-3264.945481907583
 30
0.0
 11
-1632.191266592485
 21
-3264.945481907583
 31
0.0
  0
SOLID
  5
534
  8
0
  6
BYBLOCK
 62
     0
 10
-682.191266592487
 20
-3264.945481907583
 30
0.0
 11
-732.191266592487
 21
-3256.612148574248
 31
0.0
 12
-732.191266592487
 22
-3273.278815240918
 32
0.0
 13
-732.191266592487
 23
-3273.278815240918
 33
0.0
  0
SOLID
  5
535
  8
0
  6
BYBLOCK
 62
     0
 10
-1682.191266592485
 20
-3264.945481907583
 30
0.0
 11
-1632.191266592485
 21
-3256.612148574248
 31
0.0
 12
-1632.191266592485
 22
-3273.278815240918
 32
0.0
 13
-1632.191266592485
 23
-3273.278815240918
 33
0.0
  0
TEXT
  5
536
  8
0
  6
BYBLOCK
 62
     0
 10
-1252.941266592486
 20
-3264.320481907583
 30
0.0
 40
50.0
  1
1000
  0
ENDBLK
  5
B2B
  8
MASSE
  0
BLOCK
  8
0
  2
*D61
 70
     1
 10
0.0
 20
0.0
 30
0.0
  3
*D61
  1

  0
POINT
  5
53A
  8
DEFPOINTS
  6
BYBLOCK
 62
     0
 10
217.8087334075131
 20
-3353.723008468079
 30
0.0
  0
POINT
  5
53B
  8
DEFPOINTS
  6
BYBLOCK
 62
     0
 10
-682.191266592487
 20
-3353.723008468079
 30
0.0
  0
LINE
  5
53C
  8
0
  6
BYBLOCK
 62
     0
 10
217.8087334075131
 20
-3353.098008468079
 30
0.0
 11
217.8087334075131
 21
-3264.945481907583
 31
0.0
  0
LINE
  5
53D
  8
0
  6
BYBLOCK
 62
     0
 10
-682.191266592487
 20
-3353.098008468079
 30
0.0
 11
-682.191266592487
 21
-3264.945481907583
 31
0.0
  0
LINE
  5
53E
  8
0
  6
BYBLOCK
 62
     0
 10
167.8087334075131
 20
-3266.195481907583
 30
0.0
 11
-632.191266592487
 21
-3266.195481907583
 31
0.0
  0
SOLID
  5
53F
  8
0
  6
BYBLOCK
 62
     0
 10
217.8087334075131
 20
-3266.195481907583
 30
0.0
 11
167.8087334075131
 21
-3257.862148574248
 31
0.0
 12
167.8087334075131
 22
-3274.528815240918
 32
0.0
 13
167.8087334075131
 23
-3274.528815240918
 33
0.0
  0
SOLID
  5
540
  8
0
  6
BYBLOCK
 62
     0
 10
-682.191266592487
 20
-3266.195481907583
 30
0.0
 11
-632.191266592487
 21
-3257.862148574248
 31
0.0
 12
-632.191266592487
 22
-3274.528815240918
 32
0.0
 13
-632.191266592487
 23
-3274.528815240918
 33
0.0
  0
TEXT
  5
541
  8
0
  6
BYBLOCK
 62
     0
 10
-290.441266592487
 20
-3265.570481907583
 30
0.0
 40
50.0
  1
900
  0
ENDBLK
  5
B2D
  8
MASSE
  0
BLOCK
  8
0
  2
*D62
 70
     1
 10
0.0
 20
0.0
 30
0.0
  3
*D62
  1

  0
POINT
  5
545
  8
DEFPOINTS
  6
BYBLOCK
 62
     0
 10
1117.808733407513
 20
-3353.098008468079
 30
0.0
  0
POINT
  5
546
  8
DEFPOINTS
  6
BYBLOCK
 62
     0
 10
217.8087334075131
 20
-3353.723008468079
 30
0.0
  0
LINE
  5
547
  8
0
  6
BYBLOCK
 62
     0
 10
1117.808733407513
 20
-3352.473008468079
 30
0.0
 11
1117.808733407513
 21
-3264.945481907583
 31
0.0
  0
LINE
  5
548
  8
0
  6
BYBLOCK
 62
     0
 10
217.8087334075131
 20
-3353.098008468079
 30
0.0
 11
217.8087334075131
 21
-3264.945481907583
 31
0.0
  0
LINE
  5
549
  8
0
  6
BYBLOCK
 62
     0
 10
1067.808733407513
 20
-3266.195481907583
 30
0.0
 11
267.8087334075131
 21
-3266.195481907583
 31
0.0
  0
SOLID
  5
54A
  8
0
  6
BYBLOCK
 62
     0
 10
1117.808733407513
 20
-3266.195481907583
 30
0.0
 11
1067.808733407513
 21
-3257.862148574248
 31
0.0
 12
1067.808733407513
 22
-3274.528815240918
 32
0.0
 13
1067.808733407513
 23
-3274.528815240918
 33
0.0
  0
SOLID
  5
54B
  8
0
  6
BYBLOCK
 62
     0
 10
217.8087334075131
 20
-3266.195481907583
 30
0.0
 11
267.8087334075131
 21
-3257.862148574248
 31
0.0
 12
267.8087334075131
 22
-3274.528815240918
 32
0.0
 13
267.8087334075131
 23
-3274.528815240918
 33
0.0
  0
TEXT
  5
54C
  8
0
  6
BYBLOCK
 62
     0
 10
609.5587334075131
 20
-3265.570481907583
 30
0.0
 40
50.0
  1
900
  0
ENDBLK
  5
B2F
  8
MASSE
  0
BLOCK
  8
0
  2
*D63
 70
     1
 10
0.0
 20
0.0
 30
0.0
  3
*D63
  1

  0
POINT
  5
550
  8
DEFPOINTS
  6
BYBLOCK
 62
     0
 10
2017.808733407513
 20
-3353.098008468079
 30
0.0
  0
POINT
  5
551
  8
DEFPOINTS
  6
BYBLOCK
 62
     0
 10
1117.808733407513
 20
-3353.723008468079
 30
0.0
  0
LINE
  5
552
  8
0
  6
BYBLOCK
 62
     0
 10
2017.808733407513
 20
-3352.473008468079
 30
0.0
 11
2017.808733407513
 21
-3266.195481907583
 31
0.0
  0
LINE
  5
553
  8
0
  6
BYBLOCK
 62
     0
 10
1117.808733407513
 20
-3353.098008468079
 30
0.0
 11
1117.808733407513
 21
-3266.195481907583
 31
0.0
  0
LINE
  5
554
  8
0
  6
BYBLOCK
 62
     0
 10
1967.808733407513
 20
-3267.445481907583
 30
0.0
 11
1167.808733407513
 21
-3267.445481907583
 31
0.0
  0
SOLID
  5
555
  8
0
  6
BYBLOCK
 62
     0
 10
2017.808733407513
 20
-3267.445481907583
 30
0.0
 11
1967.808733407513
 21
-3259.112148574248
 31
0.0
 12
1967.808733407513
 22
-3275.778815240918
 32
0.0
 13
1967.808733407513
 23
-3275.778815240918
 33
0.0
  0
SOLID
  5
556
  8
0
  6
BYBLOCK
 62
     0
 10
1117.808733407513
 20
-3267.445481907583
 30
0.0
 11
1167.808733407513
 21
-3259.112148574248
 31
0.0
 12
1167.808733407513
 22
-3275.778815240918
 32
0.0
 13
1167.808733407513
 23
-3275.778815240918
 33
0.0
  0
TEXT
  5
557
  8
0
  6
BYBLOCK
 62
     0
 10
1509.558733407513
 20
-3266.820481907583
 30
0.0
 40
50.0
  1
900
  0
ENDBLK
  5
B31
  8
MASSE
  0
BLOCK
  8
0
  2
*D64
 70
     1
 10
0.0
 20
0.0
 30
0.0
  3
*D64
  1

  0
POINT
  5
55B
  8
DEFPOINTS
  6
BYBLOCK
 62
     0
 10
2017.808733407513
 20
-3353.723008468079
 30
0.0
  0
POINT
  5
55C
  8
DEFPOINTS
  6
BYBLOCK
 62
     0
 10
2917.808733407513
 20
-3353.723008468079
 30
0.0
  0
LINE
  5
55D
  8
0
  6
BYBLOCK
 62
     0
 10
2017.808733407513
 20
-3353.098008468079
 30
0.0
 11
2017.808733407513
 21
-3267.445481907583
 31
0.0
  0
LINE
  5
55E
  8
0
  6
BYBLOCK
 62
     0
 10
2917.808733407513
 20
-3353.098008468079
 30
0.0
 11
2917.808733407513
 21
-3267.445481907583
 31
0.0
  0
LINE
  5
55F
  8
0
  6
BYBLOCK
 62
     0
 10
2067.808733407513
 20
-3268.695481907583
 30
0.0
 11
2867.808733407513
 21
-3268.695481907583
 31
0.0
  0
SOLID
  5
560
  8
0
  6
BYBLOCK
 62
     0
 10
2017.808733407513
 20
-3268.695481907583
 30
0.0
 11
2067.808733407513
 21
-3277.028815240918
 31
0.0
 12
2067.808733407513
 22
-3260.362148574248
 32
0.0
 13
2067.808733407513
 23
-3260.362148574248
 33
0.0
  0
SOLID
  5
561
  8
0
  6
BYBLOCK
 62
     0
 10
2917.808733407513
 20
-3268.695481907583
 30
0.0
 11
2867.808733407513
 21
-3277.028815240918
 31
0.0
 12
2867.808733407513
 22
-3260.362148574248
 32
0.0
 13
2867.808733407513
 23
-3260.362148574248
 33
0.0
  0
TEXT
  5
562
  8
0
  6
BYBLOCK
 62
     0
 10
2409.558733407513
 20
-3268.070481907583
 30
0.0
 40
50.0
  1
900
  0
ENDBLK
  5
B33
  8
MASSE
  0
BLOCK
  8
0
  2
*D65
 70
     1
 10
0.0
 20
0.0
 30
0.0
  3
*D65
  1

  0
POINT
  5
566
  8
DEFPOINTS
  6
BYBLOCK
 62
     0
 10
2917.808733407513
 20
-3353.723008468079
 30
0.0
  0
POINT
  5
567
  8
DEFPOINTS
  6
BYBLOCK
 62
     0
 10
3367.808733407513
 20
-3353.723008468079
 30
0.0
  0
LINE
  5
568
  8
0
  6
BYBLOCK
 62
     0
 10
2917.808733407513
 20
-3353.098008468079
 30
0.0
 11
2917.808733407513
 21
-3267.445481907583
 31
0.0
  0
LINE
  5
569
  8
0
  6
BYBLOCK
 62
     0
 10
3367.808733407513
 20
-3353.098008468079
 30
0.0
 11
3367.808733407513
 21
-3267.445481907583
 31
0.0
  0
LINE
  5
56A
  8
0
  6
BYBLOCK
 62
     0
 10
2967.808733407513
 20
-3268.695481907583
 30
0.0
 11
3317.808733407513
 21
-3268.695481907583
 31
0.0
  0
SOLID
  5
56B
  8
0
  6
BYBLOCK
 62
     0
 10
2917.808733407513
 20
-3268.695481907583
 30
0.0
 11
2967.808733407513
 21
-3277.028815240918
 31
0.0
 12
2967.808733407513
 22
-3260.362148574248
 32
0.0
 13
2967.808733407513
 23
-3260.362148574248
 33
0.0
  0
SOLID
  5
56C
  8
0
  6
BYBLOCK
 62
     0
 10
3367.808733407513
 20
-3268.695481907583
 30
0.0
 11
3317.808733407513
 21
-3277.028815240918
 31
0.0
 12
3317.808733407513
 22
-3260.362148574248
 32
0.0
 13
3317.808733407513
 23
-3260.362148574248
 33
0.0
  0
TEXT
  5
56D
  8
0
  6
BYBLOCK
 62
     0
 10
3080.308733407513
 20
-3268.070481907583
 30
0.0
 40
50.0
  1
450
  0
ENDBLK
  5
B35
  8
MASSE
  0
BLOCK
  8
0
  2
*D66
 70
     1
 10
0.0
 20
0.0
 30
0.0
  3
*D66
  1

  0
POINT
  5
572
  8
DEFPOINTS
  6
BYBLOCK
 62
     0
 10
-1532.191266592487
 20
-3350.63255820879
 30
0.0
  0
POINT
  5
573
  8
DEFPOINTS
  6
BYBLOCK
 62
     0
 10
-1532.191266592487
 20
-4150.63255820879
 30
0.0
  0
LINE
  5
574
  8
0
  6
BYBLOCK
 62
     0
 10
-1532.816266592487
 20
-3350.63255820879
 30
0.0
 11
-1636.271704277407
 21
-3350.63255820879
 31
0.0
  0
LINE
  5
575
  8
0
  6
BYBLOCK
 62
     0
 10
-1532.816266592487
 20
-4150.63255820879
 30
0.0
 11
-1636.271704277407
 21
-4150.63255820879
 31
0.0
  0
LINE
  5
576
  8
0
  6
BYBLOCK
 62
     0
 10
-1635.021704277407
 20
-3400.63255820879
 30
0.0
 11
-1635.021704277407
 21
-4100.63255820879
 31
0.0
  0
SOLID
  5
577
  8
0
  6
BYBLOCK
 62
     0
 10
-1635.021704277407
 20
-3350.63255820879
 30
0.0
 11
-1643.355037610742
 21
-3400.63255820879
 31
0.0
 12
-1626.688370944072
 22
-3400.63255820879
 32
0.0
 13
-1626.688370944072
 23
-3400.63255820879
 33
0.0
  0
SOLID
  5
578
  8
0
  6
BYBLOCK
 62
     0
 10
-1635.021704277407
 20
-4150.63255820879
 30
0.0
 11
-1643.355037610742
 21
-4100.63255820879
 31
0.0
 12
-1626.688370944072
 22
-4100.63255820879
 32
0.0
 13
-1626.688370944072
 23
-4100.63255820879
 33
0.0
  0
TEXT
  5
579
  8
0
  6
BYBLOCK
 62
     0
 10
-1635.646704277408
 20
-3808.88255820879
 30
0.0
 40
50.0
  1
800
 50
90.0
  0
ENDBLK
  5
B37
  8
MASSE
  0
BLOCK
  8
0
  2
*D67
 70
     1
 10
0.0
 20
0.0
 30
0.0
  3
*D67
  1

  0
POINT
  5
57D
  8
DEFPOINTS
  6
BYBLOCK
 62
     0
 10
-1670.347768442611
 20
-3350.63255820879
 30
0.0
  0
POINT
  5
57E
  8
DEFPOINTS
  6
BYBLOCK
 62
     0
 10
-1670.347768442611
 20
-4150.63255820879
 30
0.0
  0
LINE
  5
57F
  8
0
  6
BYBLOCK
 62
     0
 10
-1670.972768442611
 20
-3350.63255820879
 30
0.0
 11
-1774.428206127531
 21
-3350.63255820879
 31
0.0
  0
LINE
  5
580
  8
0
  6
BYBLOCK
 62
     0
 10
-1670.972768442611
 20
-4150.63255820879
 30
0.0
 11
-1774.428206127531
 21
-4150.63255820879
 31
0.0
  0
LINE
  5
581
  8
0
  6
BYBLOCK
 62
     0
 10
-1773.178206127531
 20
-3400.63255820879
 30
0.0
 11
-1773.178206127531
 21
-4100.63255820879
 31
0.0
  0
SOLID
  5
582
  8
0
  6
BYBLOCK
 62
     0
 10
-1773.178206127531
 20
-3350.63255820879
 30
0.0
 11
-1781.511539460866
 21
-3400.63255820879
 31
0.0
 12
-1764.844872794196
 22
-3400.63255820879
 32
0.0
 13
-1764.844872794196
 23
-3400.63255820879
 33
0.0
  0
SOLID
  5
583
  8
0
  6
BYBLOCK
 62
     0
 10
-1773.178206127531
 20
-4150.63255820879
 30
0.0
 11
-1781.511539460866
 21
-4100.63255820879
 31
0.0
 12
-1764.844872794196
 22
-4100.63255820879
 32
0.0
 13
-1764.844872794196
 23
-4100.63255820879
 33
0.0
  0
TEXT
  5
584
  8
0
  6
BYBLOCK
 62
     0
 10
-1773.803206127531
 20
-3808.88255820879
 30
0.0
 40
50.0
  1
800
 50
90.0
  0
ENDBLK
  5
B39
  8
MASSE
  0
BLOCK
  8
0
  2
*D68
 70
     1
 10
0.0
 20
0.0
 30
0.0
  3
*D68
  1

  0
POINT
  5
58D
  8
DEFPOINTS
  6
BYBLOCK
 62
     0
 10
2402.409169033856
 20
-2098.748343769603
 30
0.0
  0
POINT
  5
58E
  8
DEFPOINTS
  6
BYBLOCK
 62
     0
 10
3365.100324001204
 20
-1766.748343850967
 30
0.0
  0
LINE
  5
58F
  8
0
  6
BYBLOCK
 62
     0
 10
2402.409169033856
 20
-2098.123343769603
 30
0.0
 11
2402.409169033856
 21
-1700.23936635331
 31
0.0
  0
LINE
  5
590
  8
0
  6
BYBLOCK
 62
     0
 10
3365.100324001204
 20
-1766.123343850967
 30
0.0
 11
3365.100324001204
 21
-1700.23936635331
 31
0.0
  0
LINE
  5
591
  8
0
  6
BYBLOCK
 62
     0
 10
2404.909169033856
 20
-1701.48936635331
 30
0.0
 11
3362.600324001204
 21
-1701.48936635331
 31
0.0
  0
SOLID
  5
592
  8
0
  6
BYBLOCK
 62
     0
 10
2402.409169033856
 20
-1701.48936635331
 30
0.0
 11
2404.909169033856
 21
-1701.906033019977
 31
0.0
 12
2404.909169033856
 22
-1701.072699686643
 32
0.0
 13
2404.909169033856
 23
-1701.072699686643
 33
0.0
  0
SOLID
  5
593
  8
0
  6
BYBLOCK
 62
     0
 10
3365.100324001204
 20
-1701.48936635331
 30
0.0
 11
3362.600324001204
 21
-1701.906033019977
 31
0.0
 12
3362.600324001204
 22
-1701.072699686643
 32
0.0
 13
3362.600324001204
 23
-1701.072699686643
 33
0.0
  0
TEXT
  5
594
  8
0
  6
BYBLOCK
 62
     0
 10
2880.41724651753
 20
-1700.86436635331
 30
0.0
 40
2.5
  1
962
  0
ENDBLK
  5
B3B
  8
0
  0
BLOCK
  8
0
  2
*D69
 70
     1
 10
0.0
 20
0.0
 30
0.0
  3
*D69
  1

  0
POINT
  5
598
  8
DEFPOINTS
  6
BYBLOCK
 62
     0
 10
3281.64803959196
 20
-1833.257321429989
 30
0.0
  0
POINT
  5
599
  8
DEFPOINTS
  6
BYBLOCK
 62
     0
 10
2318.95688400659
 20
-2165.257321429989
 30
0.0
  0
LINE
  5
59A
  8
0
  6
BYBLOCK
 62
     0
 10
3281.02303959196
 20
-1833.257321429989
 30
0.0
 11
2234.254600215366
 21
-1833.257321429989
 31
0.0
  0
LINE
  5
59B
  8
0
  6
BYBLOCK
 62
     0
 10
2318.33188400659
 20
-2165.257321429989
 30
0.0
 11
2234.254600215366
 21
-2165.257321429989
 31
0.0
  0
LINE
  5
59C
  8
0
  6
BYBLOCK
 62
     0
 10
2235.504600215366
 20
-1835.757321429989
 30
0.0
 11
2235.504600215366
 21
-2162.757321429989
 31
0.0
  0
SOLID
  5
59D
  8
0
  6
BYBLOCK
 62
     0
 10
2235.504600215366
 20
-1833.257321429989
 30
0.0
 11
2235.0879335487
 21
-1835.757321429989
 31
0.0
 12
2235.921266882033
 22
-1835.757321429989
 32
0.0
 13
2235.921266882033
 23
-1835.757321429989
 33
0.0
  0
SOLID
  5
59E
  8
0
  6
BYBLOCK
 62
     0
 10
2235.504600215366
 20
-2165.257321429989
 30
0.0
 11
2235.0879335487
 21
-2162.757321429989
 31
0.0
 12
2235.921266882033
 22
-2162.757321429989
 32
0.0
 13
2235.921266882033
 23
-2162.757321429989
 33
0.0
  0
TEXT
  5
59F
  8
0
  6
BYBLOCK
 62
     0
 10
2234.879600215366
 20
-2002.594821429989
 30
0.0
 40
2.5
  1
332
 50
90.0
  0
ENDBLK
  5
B3D
  8
0
  0
BLOCK
  8
0
  2
*D70
 70
     1
 10
0.0
 20
0.0
 30
0.0
  3
*D70
  1

  0
POINT
  5
5A3
  8
DEFPOINTS
  6
BYBLOCK
 62
     0
 10
3695.722916703789
 20
-1833.257321348625
 30
0.0
  0
POINT
  5
5A4
  8
DEFPOINTS
  6
BYBLOCK
 62
     0
 10
3695.722916703789
 20
-2333.257321348625
 30
0.0
  0
LINE
  5
5A5
  8
0
  6
BYBLOCK
 62
     0
 10
3696.347916703789
 20
-1833.257321348625
 30
0.0
 11
3801.970509406374
 21
-1833.257321348625
 31
0.0
  0
LINE
  5
5A6
  8
0
  6
BYBLOCK
 62
     0
 10
3696.347916703789
 20
-2333.257321348625
 30
0.0
 11
3801.970509406374
 21
-2333.257321348625
 31
0.0
  0
LINE
  5
5A7
  8
0
  6
BYBLOCK
 62
     0
 10
3800.720509406374
 20
-1835.757321348625
 30
0.0
 11
3800.720509406374
 21
-2330.757321348625
 31
0.0
  0
SOLID
  5
5A8
  8
0
  6
BYBLOCK
 62
     0
 10
3800.720509406374
 20
-1833.257321348625
 30
0.0
 11
3800.303842739707
 21
-1835.757321348625
 31
0.0
 12
3801.137176073041
 22
-1835.757321348625
 32
0.0
 13
3801.137176073041
 23
-1835.757321348625
 33
0.0
  0
SOLID
  5
5A9
  8
0
  6
BYBLOCK
 62
     0
 10
3800.720509406374
 20
-2333.257321348625
 30
0.0
 11
3800.303842739707
 21
-2330.757321348625
 31
0.0
 12
3801.137176073041
 22
-2330.757321348625
 32
0.0
 13
3801.137176073041
 23
-2330.757321348625
 33
0.0
  0
TEXT
  5
5AA
  8
0
  6
BYBLOCK
 62
     0
 10
3800.095509406374
 20
-2086.169821348625
 30
0.0
 40
2.5
  1
500
 50
90.0
  0
ENDBLK
  5
B3F
  8
0
  0
BLOCK
  8
0
  2
*D71
 70
     1
 10
0.0
 20
0.0
 30
0.0
  3
*D71
  1

  0
TEXT
  5
5AE
  8
0
  6
BYBLOCK
 62
     0
 10
3369.262463219536
 20
-2433.803414789235
 30
0.0
 40
2.5
  1
60\U+00B0
 50
359.8504317341679
  0
POINT
  5
5AF
  8
DEFPOINTS
  6
BYBLOCK
 62
     0
 10
3365.100324001204
 20
-2913.257321348625
 30
0.0
  0
POINT
  5
5B0
  8
DEFPOINTS
  6
BYBLOCK
 62
     0
 10
3365.100324001204
 20
-2913.257321348625
 30
0.0
  0
POINT
  5
5B1
  8
DEFPOINTS
  6
BYBLOCK
 62
     0
 10
3365.100324001204
 20
-2333.257321348625
 30
0.0
  0
POINT
  5
5B2
  8
DEFPOINTS
  6
BYBLOCK
 62
     0
 10
2862.80558980623
 20
-2623.257321348625
 30
0.0
  0
SOLID
  5
5B3
  8
0
  6
BYBLOCK
 62
     0
 10
3365.100324001204
 20
-2434.413728846222
 30
0.0
 11
3362.601420209205
 21
-2434.836920232529
 31
0.0
 12
3362.59924482943
 22
-2434.003589738567
 32
0.0
 13
3362.59924482943
 23
-2434.003589738567
 33
0.0
  0
SOLID
  5
5B4
  8
0
  6
BYBLOCK
 62
     0
 10
2950.40960845472
 20
-2673.835525097424
 30
0.0
 11
2951.304957154292
 21
-2671.464457443964
 31
0.0
 12
2952.025554841924
 22
-2671.883006625093
 32
0.0
 13
2952.025554841924
 23
-2671.883006625093
 33
0.0
  0
ARC
  5
5B5
  8
0
  6
BYBLOCK
 62
     0
 10
3365.100324001204
 20
-2913.257321348625
 30
0.0
 40
478.8435925024026
 50
90.29913653165612
 51
149.700863468344
  0
ARC
  5
5B6
  8
0
  6
BYBLOCK
 62
     0
 10
3365.100324001204
 20
-2913.257321348625
 30
0.0
 40
478.8435925024026
 50
89.5769565794573
 51
90.0
  0
LINE
  5
5B7
  8
0
  6
BYBLOCK
 62
     0
 10
3368.635833814233
 20
-2434.426781124874
 30
0.0
 11
3375.285811156051
 21
-2434.444140655482
 31
0.0
  0
ENDBLK
  5
B41
  8
0
  0
BLOCK
  8
0
  2
*D72
 70
     1
 10
0.0
 20
0.0
 30
0.0
  3
*D72
  1

  0
POINT
  5
5BB
  8
DEFPOINTS
  6
BYBLOCK
 62
     0
 10
2265.594485437119
 20
-2657.657296960244
 30
0.0
  0
POINT
  5
5BC
  8
DEFPOINTS
  6
BYBLOCK
 62
     0
 10
2698.607187329339
 20
-2907.657296960244
 30
0.0
  0
LINE
  5
5BD
  8
0
  6
BYBLOCK
 62
     0
 10
2265.281985437119
 20
-2658.198562837609
 30
0.0
 11
2213.271082960228
 21
-2748.284088475095
 31
0.0
  0
LINE
  5
5BE
  8
0
  6
BYBLOCK
 62
     0
 10
2698.294687329339
 20
-2908.198562837609
 30
0.0
 11
2646.283784852447
 21
-2998.284088475095
 31
0.0
  0
LINE
  5
5BF
  8
0
  6
BYBLOCK
 62
     0
 10
2216.061146469689
 20
-2748.451556720364
 30
0.0
 11
2644.743721342986
 21
-2995.951556720364
 31
0.0
  0
SOLID
  5
5C0
  8
0
  6
BYBLOCK
 62
     0
 10
2213.896082960228
 20
-2747.201556720364
 30
0.0
 11
2215.852813136356
 21
-2748.812400638608
 31
0.0
 12
2216.269479803023
 22
-2748.090712802121
 32
0.0
 13
2216.269479803023
 23
-2748.090712802121
 33
0.0
  0
SOLID
  5
5C1
  8
0
  6
BYBLOCK
 62
     0
 10
2646.908784852447
 20
-2997.201556720364
 30
0.0
 11
2644.535388009653
 21
-2996.312400638608
 31
0.0
 12
2644.952054676319
 22
-2995.590712802121
 32
0.0
 13
2644.952054676319
 23
-2995.590712802121
 33
0.0
  0
TEXT
  5
5C2
  8
0
  6
BYBLOCK
 62
     0
 10
2428.192634917816
 20
-2870.204040842999
 30
0.0
 40
2.5
  1
500
 50
330.0
  0
ENDBLK
  5
B43
  8
0
  0
BLOCK
  8
0
  2
*D73
 70
     1
 10
0.0
 20
0.0
 30
0.0
  3
*D73
  1

  0
TEXT
  5
5C6
  8
0
  6
BYBLOCK
 62
     0
 10
2509.757922933706
 20
-2498.40477910445
 30
0.0
 40
50.0
  1
128\U+00B0
 50
302.2325270306789
  0
POINT
  5
5C7
  8
DEFPOINTS
  6
BYBLOCK
 62
     0
 10
2429.792887914011
 20
-2373.257321348625
 30
0.0
  0
POINT
  5
5C8
  8
DEFPOINTS
  6
BYBLOCK
 62
     0
 10
2862.80558980623
 20
-2623.257321348625
 30
0.0
  0
POINT
  5
5C9
  8
DEFPOINTS
  6
BYBLOCK
 62
     0
 10
2429.792887914011
 20
-2373.257321348625
 30
0.0
  0
POINT
  5
5CA
  8
DEFPOINTS
  6
BYBLOCK
 62
     0
 10
2376.30392997182
 20
-1966.968349073863
 30
0.0
  0
SOLID
  5
5CB
  8
0
  6
BYBLOCK
 62
     0
 10
2410.489869474082
 20
-2226.636339645531
 30
0.0
 11
2460.776543333263
 21
-2220.257086035202
 31
0.0
 12
2460.127291863142
 22
-2236.911102076579
 32
0.0
 13
2460.127291863142
 23
-2236.911102076579
 33
0.0
  0
SOLID
  5
5CC
  8
0
  6
BYBLOCK
 62
     0
 10
2557.866066594613
 20
-2447.200405535842
 30
0.0
 11
2567.368843056753
 21
-2397.409425590122
 31
0.0
 12
2583.003605392549
 22
-2403.182811466802
 32
0.0
 13
2583.003605392549
 23
-2403.182811466802
 33
0.0
  0
ARC
  5
5CD
  8
0
  6
BYBLOCK
 62
     0
 10
2429.792887914011
 20
-2373.257321348625
 30
0.0
 40
147.8861683744335
 50
349.4650540613585
 51
78.0349459386418
  0
ARC
  5
5CE
  8
0
  6
BYBLOCK
 62
     0
 10
2429.792887914011
 20
-2373.257321348625
 30
0.0
 40
147.8861683744335
 50
302.3365311137113
 51
330.0
  0
LINE
  5
5CF
  8
0
  6
BYBLOCK
 62
     0
 10
2508.895893501743
 20
-2498.209445394031
 30
0.0
 11
2589.566075808582
 21
-2626.150385622643
 31
0.0
  0
ENDBLK
  5
B45
  8
0
  0
BLOCK
  8
0
  2
*D74
 70
     1
 10
0.0
 20
0.0
 30
0.0
  3
*D74
  1

  0
POINT
  5
5D3
  8
DEFPOINTS
  6
BYBLOCK
 62
     0
 10
-78.22272093255833
 20
-2007.012667348466
 30
0.0
  0
POINT
  5
5D4
  8
DEFPOINTS
  6
BYBLOCK
 62
     0
 10
856.022686164948
 20
-2448.012667348466
 30
0.0
  0
LINE
  5
5D5
  8
0
  6
BYBLOCK
 62
     0
 10
-77.59772093255833
 20
-2007.012667348466
 30
0.0
 11
935.3548319833672
 21
-2007.012667348466
 31
0.0
  0
LINE
  5
5D6
  8
0
  6
BYBLOCK
 62
     0
 10
856.647686164948
 20
-2448.012667348466
 30
0.0
 11
935.3548319833672
 21
-2448.012667348466
 31
0.0
  0
LINE
  5
5D7
  8
0
  6
BYBLOCK
 62
     0
 10
934.1048319833672
 20
-2057.012667348466
 30
0.0
 11
934.1048319833672
 21
-2398.012667348466
 31
0.0
  0
SOLID
  5
5D8
  8
0
  6
BYBLOCK
 62
     0
 10
934.1048319833672
 20
-2007.012667348466
 30
0.0
 11
925.7714986500322
 21
-2057.012667348466
 31
0.0
 12
942.4381653167021
 22
-2057.012667348466
 32
0.0
 13
942.4381653167021
 23
-2057.012667348466
 33
0.0
  0
SOLID
  5
5D9
  8
0
  6
BYBLOCK
 62
     0
 10
934.1048319833672
 20
-2448.012667348466
 30
0.0
 11
925.7714986500322
 21
-2398.012667348466
 31
0.0
 12
942.4381653167021
 22
-2398.012667348466
 32
0.0
 13
942.4381653167021
 23
-2398.012667348466
 33
0.0
  0
TEXT
  5
5DA
  8
0
  6
BYBLOCK
 62
     0
 10
933.4798319833672
 20
-2285.762667348466
 30
0.0
 40
50.0
  1
441
 50
90.0
  0
ENDBLK
  5
B47
  8
0
  0
BLOCK
  8
0
  2
*D75
 70
     1
 10
0.0
 20
0.0
 30
0.0
  3
*D75
  1

  0
POINT
  5
5DE
  8
DEFPOINTS
  6
BYBLOCK
 62
     0
 10
-1599.468107176837
 20
-2279.739583437025
 30
0.0
  0
POINT
  5
5DF
  8
DEFPOINTS
  6
BYBLOCK
 62
     0
 10
797.5318928231627
 20
-2720.739583437025
 30
0.0
  0
LINE
  5
5E0
  8
0
  6
BYBLOCK
 62
     0
 10
-1599.468107176837
 20
-2280.364583437025
 30
0.0
 11
-1599.468107176837
 21
-2794.091499525584
 31
0.0
  0
LINE
  5
5E1
  8
0
  6
BYBLOCK
 62
     0
 10
797.5318928231627
 20
-2721.364583437025
 30
0.0
 11
797.5318928231627
 21
-2794.091499525584
 31
0.0
  0
LINE
  5
5E2
  8
0
  6
BYBLOCK
 62
     0
 10
-1549.468107176837
 20
-2792.841499525584
 30
0.0
 11
747.5318928231627
 21
-2792.841499525584
 31
0.0
  0
SOLID
  5
5E3
  8
0
  6
BYBLOCK
 62
     0
 10
-1599.468107176837
 20
-2792.841499525584
 30
0.0
 11
-1549.468107176837
 21
-2801.174832858919
 31
0.0
 12
-1549.468107176837
 22
-2784.50816619225
 32
0.0
 13
-1549.468107176837
 23
-2784.50816619225
 33
0.0
  0
SOLID
  5
5E4
  8
0
  6
BYBLOCK
 62
     0
 10
797.5318928231627
 20
-2792.841499525584
 30
0.0
 11
747.5318928231627
 21
-2801.174832858919
 31
0.0
 12
747.5318928231627
 22
-2784.50816619225
 32
0.0
 13
747.5318928231627
 23
-2784.50816619225
 33
0.0
  0
TEXT
  5
5E5
  8
0
  6
BYBLOCK
 62
     0
 10
-492.7181071768373
 20
-2792.216499525584
 30
0.0
 40
50.0
  1
2397
  0
ENDBLK
  5
B49
  8
0
  0
BLOCK
  8
0
  2
*D76
 70
     1
 10
0.0
 20
0.0
 30
0.0
  3
*D76
  1

  0
POINT
  5
5E9
  8
DEFPOINTS
  6
BYBLOCK
 62
     0
 10
-1663.480793458985
 20
-1807.012667348466
 30
0.0
  0
POINT
  5
5EA
  8
DEFPOINTS
  6
BYBLOCK
 62
     0
 10
-1663.480793458985
 20
-2207.012667348466
 30
0.0
  0
LINE
  5
5EB
  8
0
  6
BYBLOCK
 62
     0
 10
-1664.105793458985
 20
-1807.012667348466
 30
0.0
 11
-1727.493479741133
 21
-1807.012667348466
 31
0.0
  0
LINE
  5
5EC
  8
0
  6
BYBLOCK
 62
     0
 10
-1664.105793458985
 20
-2207.012667348466
 30
0.0
 11
-1727.493479741133
 21
-2207.012667348466
 31
0.0
  0
LINE
  5
5ED
  8
0
  6
BYBLOCK
 62
     0
 10
-1726.243479741133
 20
-1857.012667348466
 30
0.0
 11
-1726.243479741133
 21
-2157.012667348466
 31
0.0
  0
SOLID
  5
5EE
  8
0
  6
BYBLOCK
 62
     0
 10
-1726.243479741133
 20
-1807.012667348466
 30
0.0
 11
-1734.576813074468
 21
-1857.012667348466
 31
0.0
 12
-1717.910146407798
 22
-1857.012667348466
 32
0.0
 13
-1717.910146407798
 23
-1857.012667348466
 33
0.0
  0
SOLID
  5
5EF
  8
0
  6
BYBLOCK
 62
     0
 10
-1726.243479741133
 20
-2207.012667348466
 30
0.0
 11
-1734.576813074468
 21
-2157.012667348466
 31
0.0
 12
-1717.910146407798
 22
-2157.012667348466
 32
0.0
 13
-1717.910146407798
 23
-2157.012667348466
 33
0.0
  0
TEXT
  5
5F0
  8
0
  6
BYBLOCK
 62
     0
 10
-1726.868479741133
 20
-2065.262667348466
 30
0.0
 40
50.0
  1
400
 50
90.0
  0
ENDBLK
  5
B4B
  8
0
  0
BLOCK
  8
0
  2
*D77
 70
     1
 10
0.0
 20
0.0
 30
0.0
  3
*D77
  1

  0
POINT
  5
5F5
  8
DEFPOINTS
  6
BYBLOCK
 62
     0
 10
3696.347916703789
 20
-1833.257321348625
 30
0.0
  0
POINT
  5
5F6
  8
DEFPOINTS
  6
BYBLOCK
 62
     0
 10
3696.347916703789
 20
-2333.257321348625
 30
0.0
  0
LINE
  5
5F7
  8
0
  6
BYBLOCK
 62
     0
 10
3696.972916703789
 20
-1833.257321348625
 30
0.0
 11
3801.553842739707
 21
-1833.257321348625
 31
0.0
  0
LINE
  5
5F8
  8
0
  6
BYBLOCK
 62
     0
 10
3696.972916703789
 20
-2333.257321348625
 30
0.0
 11
3801.553842739707
 21
-2333.257321348625
 31
0.0
  0
LINE
  5
5F9
  8
0
  6
BYBLOCK
 62
     0
 10
3800.303842739707
 20
-1883.257321348625
 30
0.0
 11
3800.303842739707
 21
-2283.257321348625
 31
0.0
  0
SOLID
  5
5FA
  8
0
  6
BYBLOCK
 62
     0
 10
3800.303842739707
 20
-1833.257321348625
 30
0.0
 11
3791.970509406372
 21
-1883.257321348625
 31
0.0
 12
3808.637176073042
 22
-1883.257321348625
 32
0.0
 13
3808.637176073042
 23
-1883.257321348625
 33
0.0
  0
SOLID
  5
5FB
  8
0
  6
BYBLOCK
 62
     0
 10
3800.303842739707
 20
-2333.257321348625
 30
0.0
 11
3791.970509406372
 21
-2283.257321348625
 31
0.0
 12
3808.637176073042
 22
-2283.257321348625
 32
0.0
 13
3808.637176073042
 23
-2283.257321348625
 33
0.0
  0
TEXT
  5
5FC
  8
0
  6
BYBLOCK
 62
     0
 10
3799.678842739707
 20
-2141.507321348625
 30
0.0
 40
50.0
  1
500
 50
90.0
  0
ENDBLK
  5
B4D
  8
MASSE
  0
BLOCK
  8
0
  2
*D78
 70
     1
 10
0.0
 20
0.0
 30
0.0
  3
*D78
  1

  0
POINT
  5
601
  8
DEFPOINTS
  6
BYBLOCK
 62
     0
 10
3365.100324001204
 20
-1766.123343850967
 30
0.0
  0
POINT
  5
602
  8
DEFPOINTS
  6
BYBLOCK
 62
     0
 10
2402.409169033856
 20
-2098.123343769603
 30
0.0
  0
LINE
  5
603
  8
0
  6
BYBLOCK
 62
     0
 10
3365.100324001204
 20
-1765.498343850967
 30
0.0
 11
3365.100324001204
 21
-1700.23936635331
 31
0.0
  0
LINE
  5
604
  8
0
  6
BYBLOCK
 62
     0
 10
2402.409169033856
 20
-2097.498343769603
 30
0.0
 11
2402.409169033856
 21
-1700.23936635331
 31
0.0
  0
LINE
  5
605
  8
0
  6
BYBLOCK
 62
     0
 10
3315.100324001204
 20
-1701.48936635331
 30
0.0
 11
2452.409169033856
 21
-1701.48936635331
 31
0.0
  0
SOLID
  5
606
  8
0
  6
BYBLOCK
 62
     0
 10
3365.100324001204
 20
-1701.48936635331
 30
0.0
 11
3315.100324001204
 21
-1693.156033019975
 31
0.0
 12
3315.100324001204
 22
-1709.822699686645
 32
0.0
 13
3315.100324001204
 23
-1709.822699686645
 33
0.0
  0
SOLID
  5
607
  8
0
  6
BYBLOCK
 62
     0
 10
2402.409169033856
 20
-1701.48936635331
 30
0.0
 11
2452.409169033856
 21
-1693.156033019975
 31
0.0
 12
2452.409169033856
 22
-1709.822699686645
 32
0.0
 13
2452.409169033856
 23
-1709.822699686645
 33
0.0
  0
TEXT
  5
608
  8
0
  6
BYBLOCK
 62
     0
 10
2817.00474651753
 20
-1700.86436635331
 30
0.0
 40
50.0
  1
963
  0
ENDBLK
  5
B4F
  8
MASSE
  0
BLOCK
  8
0
  2
*D79
 70
     1
 10
0.0
 20
0.0
 30
0.0
  3
*D79
  1

  0
POINT
  5
60D
  8
DEFPOINTS
  6
BYBLOCK
 62
     0
 10
2318.33188400659
 20
-2165.257321429989
 30
0.0
  0
POINT
  5
60E
  8
DEFPOINTS
  6
BYBLOCK
 62
     0
 10
3281.02303959196
 20
-1833.257321429989
 30
0.0
  0
LINE
  5
60F
  8
0
  6
BYBLOCK
 62
     0
 10
2317.70688400659
 20
-2165.257321429989
 30
0.0
 11
2234.254600215366
 21
-2165.257321429989
 31
0.0
  0
LINE
  5
610
  8
0
  6
BYBLOCK
 62
     0
 10
3280.39803959196
 20
-1833.257321429989
 30
0.0
 11
2234.254600215366
 21
-1833.257321429989
 31
0.0
  0
LINE
  5
611
  8
0
  6
BYBLOCK
 62
     0
 10
2235.504600215366
 20
-2115.257321429989
 30
0.0
 11
2235.504600215366
 21
-1883.257321429989
 31
0.0
  0
SOLID
  5
612
  8
0
  6
BYBLOCK
 62
     0
 10
2235.504600215366
 20
-2165.257321429989
 30
0.0
 11
2243.837933548701
 21
-2115.257321429989
 31
0.0
 12
2227.171266882031
 22
-2115.257321429989
 32
0.0
 13
2227.171266882031
 23
-2115.257321429989
 33
0.0
  0
SOLID
  5
613
  8
0
  6
BYBLOCK
 62
     0
 10
2235.504600215366
 20
-1833.257321429989
 30
0.0
 11
2243.837933548701
 21
-1883.257321429989
 31
0.0
 12
2227.171266882031
 22
-1883.257321429989
 32
0.0
 13
2227.171266882031
 23
-1883.257321429989
 33
0.0
  0
TEXT
  5
614
  8
0
  6
BYBLOCK
 62
     0
 10
2234.879600215366
 20
-2066.007321429989
 30
0.0
 40
50.0
  1
332
 50
90.0
  0
ENDBLK
  5
B51
  8
MASSE
  0
BLOCK
  8
0
  2
*D80
 70
     1
 10
0.0
 20
0.0
 30
0.0
  3
*D80
  1

  0
POINT
  5
619
  8
DEFPOINTS
  6
BYBLOCK
 62
     0
 10
2265.281985437119
 20
-2658.198562837609
 30
0.0
  0
POINT
  5
61A
  8
DEFPOINTS
  6
BYBLOCK
 62
     0
 10
2698.294687329339
 20
-2908.198562837609
 30
0.0
  0
LINE
  5
61B
  8
0
  6
BYBLOCK
 62
     0
 10
2264.969485437119
 20
-2658.739828714975
 30
0.0
 11
2213.271082960228
 21
-2748.284088475095
 31
0.0
  0
LINE
  5
61C
  8
0
  6
BYBLOCK
 62
     0
 10
2697.982187329339
 20
-2908.739828714975
 30
0.0
 11
2646.283784852447
 21
-2998.284088475095
 31
0.0
  0
LINE
  5
61D
  8
0
  6
BYBLOCK
 62
     0
 10
2257.19735314945
 20
-2772.201556720364
 30
0.0
 11
2603.607514663225
 21
-2972.201556720364
 31
0.0
  0
SOLID
  5
61E
  8
0
  6
BYBLOCK
 62
     0
 10
2213.896082960228
 20
-2747.201556720364
 30
0.0
 11
2253.030686482782
 21
-2779.418435085236
 31
0.0
 12
2261.364019816117
 22
-2764.984678355493
 32
0.0
 13
2261.364019816117
 23
-2764.984678355493
 33
0.0
  0
SOLID
  5
61F
  8
0
  6
BYBLOCK
 62
     0
 10
2646.908784852447
 20
-2997.201556720364
 30
0.0
 11
2599.440847996558
 21
-2979.418435085236
 31
0.0
 12
2607.774181329893
 22
-2964.984678355493
 32
0.0
 13
2607.774181329893
 23
-2964.984678355493
 33
0.0
  0
TEXT
  5
620
  8
0
  6
BYBLOCK
 62
     0
 10
2380.268954135894
 20
-2842.535290842999
 30
0.0
 40
50.0
  1
500
 50
330.0
  0
ENDBLK
  5
B53
  8
MASSE
  0
BLOCK
  8
0
  2
*D81
 70
     1
 10
0.0
 20
0.0
 30
0.0
  3
*D81
  1

  0
TEXT
  5
625
  8
0
  6
BYBLOCK
 62
     0
 10
3080.31506280252
 20
-2527.994779705733
 30
0.0
 40
50.0
  1
60\U+00B0
 50
29.99999999999962
  0
POINT
  5
626
  8
DEFPOINTS
  6
BYBLOCK
 62
     0
 10
2919.058211203597
 20
-2655.734787455016
 30
0.0
  0
POINT
  5
627
  8
DEFPOINTS
  6
BYBLOCK
 62
     0
 10
3365.100324001204
 20
-2434.413728846223
 30
0.0
  0
POINT
  5
628
  8
DEFPOINTS
  6
BYBLOCK
 62
     0
 10
3365.100324001204
 20
-2391.320163717366
 30
0.0
  0
POINT
  5
629
  8
DEFPOINTS
  6
BYBLOCK
 62
     0
 10
2950.40960845472
 20
-2673.835525097424
 30
0.0
  0
SOLID
  5
62A
  8
0
  6
BYBLOCK
 62
     0
 10
3365.100324001204
 20
-2437.84254255998
 30
0.0
 11
3315.607716984954
 21
-2448.793629043954
 31
0.0
 12
3314.731289315354
 22
-2432.150022093601
 32
0.0
 13
3314.731289315354
 23
-2432.150022093601
 33
0.0
  0
SOLID
  5
62B
  8
0
  6
BYBLOCK
 62
     0
 10
2953.379048235674
 20
-2675.549931954301
 30
0.0
 11
2973.633698243152
 21
-2629.082808119066
 31
0.0
 12
2987.609270837962
 22
-2638.163620220696
 32
0.0
 13
2987.609270837962
 23
-2638.163620220696
 33
0.0
  0
LINE
  5
62C
  8
0
  6
BYBLOCK
 62
     0
 10
3365.100324001204
 20
-2435.038728846223
 30
0.0
 11
3365.100324001204
 21
-2439.09254255998
 31
0.0
  0
LINE
  5
62D
  8
0
  6
BYBLOCK
 62
     0
 10
2950.950874332085
 20
-2674.148025097424
 30
0.0
 11
2954.461579990405
 21
-2676.174931954301
 31
0.0
  0
ARC
  5
62E
  8
0
  6
BYBLOCK
 62
     0
 10
3365.100324001204
 20
-2913.257321348634
 30
0.0
 40
475.4147787886532
 50
96.02865341927722
 51
143.971346580722
  0
ENDBLK
  5
B55
  8
MASSE
  0
BLOCK
  8
0
  2
*D82
 70
     1
 10
0.0
 20
0.0
 30
0.0
  3
*D82
  1

  0
POINT
  5
9B9
  8
DEFPOINTS
  6
BYBLOCK
 62
     0
 10
-815.438724084542
 20
-1679.998517437619
 30
0.0
  0
POINT
  5
9BA
  8
DEFPOINTS
  6
BYBLOCK
 62
     0
 10
-565.438724084542
 20
-1679.998517437619
 30
0.0
  0
LINE
  5
9BB
  8
0
  6
BYBLOCK
 62
     0
 10
-815.438724084542
 20
-1680.623517437619
 30
0.0
 11
-815.438724084542
 21
-1776.681894874078
 31
0.0
  0
LINE
  5
9BC
  8
0
  6
BYBLOCK
 62
     0
 10
-565.438724084542
 20
-1680.623517437619
 30
0.0
 11
-565.438724084542
 21
-1776.681894874078
 31
0.0
  0
LINE
  5
9BD
  8
0
  6
BYBLOCK
 62
     0
 10
-765.438724084542
 20
-1775.431894874078
 30
0.0
 11
-615.438724084542
 21
-1775.431894874078
 31
0.0
  0
SOLID
  5
9BE
  8
0
  6
BYBLOCK
 62
     0
 10
-815.438724084542
 20
-1775.431894874078
 30
0.0
 11
-765.438724084542
 21
-1783.765228207413
 31
0.0
 12
-765.438724084542
 22
-1767.098561540743
 32
0.0
 13
-765.438724084542
 23
-1767.098561540743
 33
0.0
  0
SOLID
  5
9BF
  8
0
  6
BYBLOCK
 62
     0
 10
-565.438724084542
 20
-1775.431894874078
 30
0.0
 11
-615.438724084542
 21
-1783.765228207413
 31
0.0
 12
-615.438724084542
 22
-1767.098561540743
 32
0.0
 13
-615.438724084542
 23
-1767.098561540743
 33
0.0
  0
TEXT
  5
9C0
  8
0
  6
BYBLOCK
 62
     0
 10
-752.938724084542
 20
-1774.806894874078
 30
0.0
 40
50.0
  1
250
  0
ENDBLK
  5
B57
  8
MASSE
  0
BLOCK
  8
0
  2
*D83
 70
     1
 10
0.0
 20
0.0
 30
0.0
  3
*D83
  1

  0
POINT
  5
9C4
  8
DEFPOINTS
  6
BYBLOCK
 62
     0
 10
-815.438724084542
 20
-1735.697980591373
 30
0.0
  0
POINT
  5
9C5
  8
DEFPOINTS
  6
BYBLOCK
 62
     0
 10
-565.438724084542
 20
-1735.697980591373
 30
0.0
  0
LINE
  5
9C6
  8
0
  6
BYBLOCK
 62
     0
 10
-815.438724084542
 20
-1736.322980591373
 30
0.0
 11
-815.438724084542
 21
-1832.381358027833
 31
0.0
  0
LINE
  5
9C7
  8
0
  6
BYBLOCK
 62
     0
 10
-565.438724084542
 20
-1736.322980591373
 30
0.0
 11
-565.438724084542
 21
-1832.381358027833
 31
0.0
  0
LINE
  5
9C8
  8
0
  6
BYBLOCK
 62
     0
 10
-765.438724084542
 20
-1831.131358027833
 30
0.0
 11
-615.438724084542
 21
-1831.131358027833
 31
0.0
  0
SOLID
  5
9C9
  8
0
  6
BYBLOCK
 62
     0
 10
-815.438724084542
 20
-1831.131358027833
 30
0.0
 11
-765.438724084542
 21
-1839.464691361168
 31
0.0
 12
-765.438724084542
 22
-1822.798024694498
 32
0.0
 13
-765.438724084542
 23
-1822.798024694498
 33
0.0
  0
SOLID
  5
9CA
  8
0
  6
BYBLOCK
 62
     0
 10
-565.438724084542
 20
-1831.131358027833
 30
0.0
 11
-615.438724084542
 21
-1839.464691361168
 31
0.0
 12
-615.438724084542
 22
-1822.798024694498
 32
0.0
 13
-615.438724084542
 23
-1822.798024694498
 33
0.0
  0
TEXT
  5
9CB
  8
0
  6
BYBLOCK
 62
     0
 10
-752.938724084542
 20
-1830.506358027833
 30
0.0
 40
50.0
  1
250
  0
ENDBLK
  5
B59
  8
MASSE
  0
BLOCK
  8
0
  2
*D84
 70
     1
 10
0.0
 20
0.0
 30
0.0
  3
*D84
  1

  0
POINT
  5
9D0
  8
DEFPOINTS
  6
BYBLOCK
 62
     0
 10
-402.6437891688851
 20
-1676.517626184929
 30
0.0
  0
POINT
  5
9D1
  8
DEFPOINTS
  6
BYBLOCK
 62
     0
 10
-147.6437891688851
 20
-1676.517626184929
 30
0.0
  0
LINE
  5
9D2
  8
0
  6
BYBLOCK
 62
     0
 10
-402.6437891688851
 20
-1677.142626184929
 30
0.0
 11
-402.6437891688851
 21
-1763.910279568923
 31
0.0
  0
LINE
  5
9D3
  8
0
  6
BYBLOCK
 62
     0
 10
-147.6437891688851
 20
-1677.142626184929
 30
0.0
 11
-147.6437891688851
 21
-1763.910279568923
 31
0.0
  0
LINE
  5
9D4
  8
0
  6
BYBLOCK
 62
     0
 10
-352.6437891688851
 20
-1762.660279568923
 30
0.0
 11
-197.6437891688851
 21
-1762.660279568923
 31
0.0
  0
SOLID
  5
9D5
  8
0
  6
BYBLOCK
 62
     0
 10
-402.6437891688851
 20
-1762.660279568923
 30
0.0
 11
-352.6437891688851
 21
-1770.993612902258
 31
0.0
 12
-352.6437891688851
 22
-1754.326946235588
 32
0.0
 13
-352.6437891688851
 23
-1754.326946235588
 33
0.0
  0
SOLID
  5
9D6
  8
0
  6
BYBLOCK
 62
     0
 10
-147.6437891688851
 20
-1762.660279568923
 30
0.0
 11
-197.6437891688851
 21
-1770.993612902258
 31
0.0
 12
-197.6437891688851
 22
-1754.326946235588
 32
0.0
 13
-197.6437891688851
 23
-1754.326946235588
 33
0.0
  0
TEXT
  5
9D7
  8
0
  6
BYBLOCK
 62
     0
 10
-341.8937891688851
 20
-1762.035279568923
 30
0.0
 40
50.0
  1
255
  0
ENDBLK
  5
B5B
  8
MASSE
  0
BLOCK
  8
0
  2
*D85
 70
     1
 10
0.0
 20
0.0
 30
0.0
  3
*D85
  1

  0
POINT
  5
9DB
  8
DEFPOINTS
  6
BYBLOCK
 62
     0
 10
-402.6437891688851
 20
-1734.278912224134
 30
0.0
  0
POINT
  5
9DC
  8
DEFPOINTS
  6
BYBLOCK
 62
     0
 10
-147.6437891688851
 20
-1734.278912224134
 30
0.0
  0
LINE
  5
9DD
  8
0
  6
BYBLOCK
 62
     0
 10
-402.6437891688851
 20
-1734.903912224134
 30
0.0
 11
-402.6437891688851
 21
-1821.671565608129
 31
0.0
  0
LINE
  5
9DE
  8
0
  6
BYBLOCK
 62
     0
 10
-147.6437891688851
 20
-1734.903912224134
 30
0.0
 11
-147.6437891688851
 21
-1821.671565608129
 31
0.0
  0
LINE
  5
9DF
  8
0
  6
BYBLOCK
 62
     0
 10
-352.6437891688851
 20
-1820.421565608129
 30
0.0
 11
-197.6437891688851
 21
-1820.421565608129
 31
0.0
  0
SOLID
  5
9E0
  8
0
  6
BYBLOCK
 62
     0
 10
-402.6437891688851
 20
-1820.421565608129
 30
0.0
 11
-352.6437891688851
 21
-1828.754898941464
 31
0.0
 12
-352.6437891688851
 22
-1812.088232274793
 32
0.0
 13
-352.6437891688851
 23
-1812.088232274793
 33
0.0
  0
SOLID
  5
9E1
  8
0
  6
BYBLOCK
 62
     0
 10
-147.6437891688851
 20
-1820.421565608129
 30
0.0
 11
-197.6437891688851
 21
-1828.754898941464
 31
0.0
 12
-197.6437891688851
 22
-1812.088232274793
 32
0.0
 13
-197.6437891688851
 23
-1812.088232274793
 33
0.0
  0
TEXT
  5
9E2
  8
0
  6
BYBLOCK
 62
     0
 10
-341.8937891688851
 20
-1819.796565608129
 30
0.0
 40
50.0
  1
255
  0
ENDBLK
  5
B5D
  8
MASSE
  0
BLOCK
  8
0
  2
*D86
 70
     1
 10
0.0
 20
0.0
 30
0.0
  3
*D86
  1

  0
LINE
  5
9E7
  8
MASSE
 62
     0
 10
26.10523844401015
 20
-256.1127583139671
 30
0.0
 11
26.10523844401016
 21
-342.3729116979618
 31
0.0
  0
LINE
  5
9E8
  8
MASSE
 62
     0
 10
281.1052384440101
 20
-256.1127583139671
 30
0.0
 11
281.1052384440101
 21
-342.3729116979618
 31
0.0
  0
LINE
  5
9E9
  8
MASSE
 62
     0
 10
76.10523844401016
 20
-342.1929116979618
 30
0.0
 11
86.76523844401012
 21
-342.1929116979618
 31
0.0
  0
LINE
  5
9EA
  8
MASSE
 62
     0
 10
231.1052384440101
 20
-342.1929116979618
 30
0.0
 11
220.4452384440101
 21
-342.1929116979618
 31
0.0
  0
SOLID
  5
9EB
  8
MASSE
 62
     0
 10
76.10523844401016
 20
-333.8595783646285
 30
0.0
 11
76.10523844401016
 21
-350.5262450312951
 31
0.0
 12
26.10523844401016
 22
-342.1929116979618
 32
0.0
 13
26.10523844401016
 23
-342.1929116979618
 33
0.0
  0
SOLID
  5
9EC
  8
MASSE
 62
     0
 10
231.1052384440101
 20
-350.5262450312951
 30
0.0
 11
231.1052384440101
 21
-333.8595783646285
 31
0.0
 12
281.1052384440101
 22
-342.1929116979618
 32
0.0
 13
281.1052384440101
 23
-342.1929116979618
 33
0.0
  0
TEXT
  5
9ED
  8
MASSE
 62
     0
 10
86.85523844401013
 20
-367.1929116979618
 30
0.0
 40
50.0
  1
255
  0
POINT
  5
9EE
  8
DEFPOINTS
 62
     0
 10
26.10523844401015
 20
-256.0502583139671
 30
0.0
  0
POINT
  5
B62
  8
DEFPOINTS
 62
     0
 10
281.1052384440101
 20
-256.0502583139671
 30
0.0
  0
POINT
  5
B63
  8
DEFPOINTS
 62
     0
 10
281.1052384440101
 20
-342.1929116979618
 30
0.0
  0
ENDBLK
  5
B5F
  8
MASSE
  0
BLOCK
  8
0
  2
NRE-611B
 70
     0
 10
0.0
 20
0.0
 30
0.0
  3
NRE-611B
  1

  0
LINE
  5
AA2
  8
0
 10
26.10523844401018
 20
-198.2889722747618
 30
0.0
 11
281.1052384440102
 21
-198.2889722747618
 31
0.0
  0
LINE
  5
AA3
  8
0
 10
281.1052384440102
 20
-198.2889722747618
 30
0.0
 11
333.3157153320308
 21
198.2889722747623
 31
0.0
  0
LINE
  5
AA4
  8
0
 10
26.10523844401013
 20
-198.2889722747618
 30
0.0
 11
-26.1052384440105
 21
198.2889722747623
 31
0.0
  0
LINE
  5
AA5
  8
0
 10
-26.1052384440105
 20
198.2889722747623
 30
0.0
 11
333.3157153320308
 21
198.2889722747623
 31
0.0
  0
POLYLINE
  5
AA6
  8
0
 66
     1
 10
0.0
 20
0.0
 30
0.0
 40
9.0
 41
9.0
  0
VERTEX
  5
B6E
  8
0
 10
-0.0000000000001821
 20
0.0000000000002274
 30
0.0
 42
-0.0655434628152373
  0
VERTEX
  5
B6F
  8
0
 10
307.2104768880205
 20
0.0000000000002274
 30
0.0
 42
-15.25705168826565
  0
SEQEND
  5
B6D
  8
0
  0
TEXT
  5
AA7
  8
0
 10
63.90040661409961
 20
129.8003163750782
 30
0.0
 40
60.0
  1
NRE-
  0
TEXT
  5
AA8
  8
0
 10
63.90040661409961
 20
29.80035637507808
 30
0.0
 40
60.0
  1
611b
  0
TEXT
  5
AA9
  8
0
 62
     2
 10
49.54726144060209
 20
-181.5201714166117
 30
0.0
 40
25.0
  1
DL03/22
  0
TEXT
  5
AAA
  8
0
 10
78.41709144994709
 20
-55.667387047896
 30
0.0
 40
40.0
  1
ElvMu
  0
TEXT
  5
AAB
  8
0
 10
114.9531872988106
 20
-141.1057205675704
 30
0.0
 40
40.0
  1
15°
  0
DIMENSION
  5
AAC
  8
MASSE
  2
*D86
 10
281.1052384440101
 20
-342.1929116979618
 30
0.0
 11
153.6052384440101
 21
-342.1929116979618
 31
0.0
 70
    32
  3
STANDARD
 13
26.10523844401015
 23
-256.0502583139671
 33
0.0
 14
281.1052384440101
 24
-256.0502583139671
 34
0.0
1001
ACAD
1000
DSTYLE
1002
{
1070
    41
1040
50.0
1070
   140
1040
50.0
1070
   271
1070
     0
1070
   272
1070
     0
1002
}
  0
ENDBLK
  5
B61
  8
0
  0
ENDSEC
  0
SECTION
  2
ENTITIES
  0
INSERT
  5
AAF
  8
0
  2
NRE-611B
 10
-323.729318884761
 20
-1447.627102041762
 30
0.0
  0
ENDSEC
  0
EOF
