  0
SECTION
  2
HEADER
  9
$ACADVER
  1
AC1009
  9
$DWGCODEPAGE
  3
ansi_1252
  9
$INSBASE
 10
0.0
 20
0.0
 30
0.0
  9
$EXTMIN
 10
1189.023868201491
 20
-284.2678764672663
 30
0.0
  9
$EXTMAX
 10
2640.655082704311
 20
704.7186937896597
 30
0.0
  9
$LIMMIN
 10
0.0
 20
0.0
  9
$LIMMAX
 10
420.0
 20
297.0
  9
$ORTHOMODE
 70
     0
  9
$REGENMODE
 70
     1
  9
$FILLMODE
 70
     1
  9
$QTEXTMODE
 70
     0
  9
$MIRRTEXT
 70
     0
  9
$DRAGMODE
 70
     2
  9
$LTSCALE
 40
1.0
  9
$OSMODE
 70
    37
  9
$ATTMODE
 70
     1
  9
$TEXTSIZE
 40
50.0
  9
$TRACEWID
 40
1.0
  9
$TEXTSTYLE
  7
STANDARD
  9
$CLAYER
  8
0
  9
$CELTYPE
  6
BYLAYER
  9
$CECOLOR
 62
   256
  9
$DIMSCALE
 40
1.0
  9
$DIMASZ
 40
80.0
  9
$DIMEXO
 40
0.625
  9
$DIMDLI
 40
3.75
  9
$DIMRND
 40
0.0
  9
$DIMDLE
 40
0.0
  9
$DIMEXE
 40
1.25
  9
$DIMTP
 40
0.0
  9
$DIMTM
 40
0.0
  9
$DIMTXT
 40
80.0
  9
$DIMCEN
 40
2.5
  9
$DIMTSZ
 40
0.0
  9
$DIMTOL
 70
     0
  9
$DIMLIM
 70
     0
  9
$DIMTIH
 70
     0
  9
$DIMTOH
 70
     0
  9
$DIMSE1
 70
     0
  9
$DIMSE2
 70
     0
  9
$DIMTAD
 70
     1
  9
$DIMZIN
 70
     8
  9
$DIMBLK
  1

  9
$DIMASO
 70
     1
  9
$DIMSHO
 70
     1
  9
$DIMPOST
  1

  9
$DIMAPOST
  1

  9
$DIMALT
 70
     0
  9
$DIMALTD
 70
     3
  9
$DIMALTF
 40
0.03937007874016
  9
$DIMLFAC
 40
1.0
  9
$DIMTOFL
 70
     1
  9
$DIMTVP
 40
0.0
  9
$DIMTIX
 70
     0
  9
$DIMSOXD
 70
     0
  9
$DIMSAH
 70
     0
  9
$DIMBLK1
  1

  9
$DIMBLK2
  1

  9
$DIMSTYLE
  2
ISO-25
  9
$DIMCLRD
 70
     0
  9
$DIMCLRE
 70
     0
  9
$DIMCLRT
 70
     0
  9
$DIMTFAC
 40
1.0
  9
$DIMGAP
 40
0.625
  9
$LUNITS
 70
     2
  9
$LUPREC
 70
     4
  9
$SKETCHINC
 40
1.0
  9
$FILLETRAD
 40
0.0
  9
$AUNITS
 70
     0
  9
$AUPREC
 70
     0
  9
$MENU
  1
.
  9
$ELEVATION
 40
0.0
  9
$PELEVATION
 40
0.0
  9
$THICKNESS
 40
0.0
  9
$LIMCHECK
 70
     0
  9
$CHAMFERA
 40
0.0
  9
$CHAMFERB
 40
0.0
  9
$SKPOLY
 70
     0
  9
$TDCREATE
 40
2453353.758792488
  9
$TDUPDATE
 40
2456282.117330371
  9
$TDINDWG
 40
9791572.06217926
  9
$TDUSRTIMER
 40
9791572.06217926
  9
$USRTIMER
 70
     1
  9
$ANGBASE
 50
0.0
  9
$ANGDIR
 70
     0
  9
$PDMODE
 70
     0
  9
$PDSIZE
 40
0.0
  9
$PLINEWID
 40
9.0
  9
$COORDS
 70
     1
  9
$SPLFRAME
 70
     0
  9
$SPLINETYPE
 70
     6
  9
$SPLINESEGS
 70
     8
  9
$ATTDIA
 70
     0
  9
$ATTREQ
 70
     1
  9
$HANDLING
 70
     1
  9
$HANDSEED
  5
149
  9
$SURFTAB1
 70
     6
  9
$SURFTAB2
 70
     6
  9
$SURFTYPE
 70
     6
  9
$SURFU
 70
     6
  9
$SURFV
 70
     6
  9
$UCSNAME
  2

  9
$UCSORG
 10
0.0
 20
0.0
 30
0.0
  9
$UCSXDIR
 10
1.0
 20
0.0
 30
0.0
  9
$UCSYDIR
 10
0.0
 20
1.0
 30
0.0
  9
$PUCSNAME
  2

  9
$PUCSORG
 10
0.0
 20
0.0
 30
0.0
  9
$PUCSXDIR
 10
1.0
 20
0.0
 30
0.0
  9
$PUCSYDIR
 10
0.0
 20
1.0
 30
0.0
  9
$USERI1
 70
     0
  9
$USERI2
 70
     0
  9
$USERI3
 70
     0
  9
$USERI4
 70
     0
  9
$USERI5
 70
     0
  9
$USERR1
 40
0.0
  9
$USERR2
 40
0.0
  9
$USERR3
 40
0.0
  9
$USERR4
 40
0.0
  9
$USERR5
 40
0.0
  9
$WORLDVIEW
 70
     1
  9
$SHADEDGE
 70
     3
  9
$SHADEDIF
 70
    70
  9
$TILEMODE
 70
     1
  9
$MAXACTVP
 70
    64
  9
$PLIMCHECK
 70
     0
  9
$PEXTMIN
 10
1.000000000000000E+20
 20
1.000000000000000E+20
 30
1.000000000000000E+20
  9
$PEXTMAX
 10
-1.000000000000000E+20
 20
-1.000000000000000E+20
 30
-1.000000000000000E+20
  9
$PLIMMIN
 10
0.0
 20
0.0
  9
$PLIMMAX
 10
420.0
 20
297.0
  9
$UNITMODE
 70
     0
  9
$VISRETAIN
 70
     1
  9
$PLINEGEN
 70
     0
  9
$PSLTSCALE
 70
     1
  0
ENDSEC
  0
SECTION
  2
TABLES
  0
TABLE
  2
VPORT
 70
     1
  0
VPORT
  2
*ACTIVE
 70
     0
 10
0.0
 20
0.0
 11
1.0
 21
1.0
 12
1914.839475452901
 22
210.2254086611967
 13
0.0
 23
0.0
 14
10.0
 24
10.0
 15
10.0
 25
10.0
 16
0.0
 26
0.0
 36
1.0
 17
0.0
 27
0.0
 37
0.0
 40
1255.934450989006
 41
1.664827586206896
 42
50.0
 43
0.0
 44
0.0
 50
0.0
 51
0.0
 71
    16
 72
  1000
 73
     1
 74
     3
 75
     0
 76
     0
 77
     0
 78
     0
  0
ENDTAB
  0
TABLE
  2
LTYPE
 70
     1
  0
LTYPE
  2
CONTINUOUS
 70
     0
  3
Solid line
 72
    65
 73
     0
 40
0.0
  0
ENDTAB
  0
TABLE
  2
LAYER
 70
     3
  0
LAYER
  2
0
 70
     0
 62
     7
  6
CONTINUOUS
  0
LAYER
  2
INFO
 70
     0
 62
     3
  6
CONTINUOUS
  0
LAYER
  2
DEFPOINTS
 70
     0
 62
     7
  6
CONTINUOUS
  0
ENDTAB
  0
TABLE
  2
STYLE
 70
     1
  0
STYLE
  2
STANDARD
 70
     0
 40
0.0
 41
1.0
 50
0.0
 71
     0
 42
2.5
  3
txt
  4

  0
ENDTAB
  0
TABLE
  2
VIEW
 70
     0
  0
ENDTAB
  0
TABLE
  2
UCS
 70
     0
  0
ENDTAB
  0
TABLE
  2
APPID
 70
     1
  0
APPID
  2
ACAD
 70
     0
  0
ENDTAB
  0
TABLE
  2
DIMSTYLE
 70
     2
  0
DIMSTYLE
  2
STANDARD
 70
     0
  3

  4

  5

  6

  7

 40
1.0
 41
0.18
 42
0.0625
 43
0.38
 44
0.18
 45
0.0
 46
0.0
 47
0.0
 48
0.0
140
0.18
141
0.09
142
0.0
143
25.4
144
1.0
145
0.0
146
1.0
147
0.09
 71
     0
 72
     0
 73
     1
 74
     1
 75
     0
 76
     0
 77
     0
 78
     0
170
     0
171
     2
172
     0
173
     0
174
     0
175
     0
176
     0
177
     0
178
     0
  0
DIMSTYLE
  2
ISO-25
 70
     0
  3

  4

  5

  6

  7

 40
1.0
 41
2.5
 42
0.625
 43
3.75
 44
1.25
 45
0.0
 46
0.0
 47
0.0
 48
0.0
140
2.5
141
2.5
142
0.0
143
0.03937007874016
144
1.0
145
0.0
146
1.0
147
0.625
 71
     0
 72
     0
 73
     0
 74
     0
 75
     0
 76
     0
 77
     1
 78
     8
170
     0
171
     3
172
     1
173
     0
174
     0
175
     0
176
     0
177
     0
178
     0
  0
ENDTAB
  0
ENDSEC
  0
SECTION
  2
BLOCKS
  0
BLOCK
  8
0
  2
$MODEL_SPACE
 70
     0
 10
0.0
 20
0.0
 30
0.0
  3
$MODEL_SPACE
  1

  0
ENDBLK
  5
21
  8
0
  0
BLOCK
 67
     1
  8
0
  2
$PAPER_SPACE
 70
     0
 10
0.0
 20
0.0
 30
0.0
  3
$PAPER_SPACE
  1

  0
ENDBLK
  5
76
 67
     1
  8
0
  0
BLOCK
  8
0
  2
*D1
 70
     1
 10
0.0
 20
0.0
 30
0.0
  3
*D1
  1

  0
POINT
  5
A3
  8
DEFPOINTS
  6
BYBLOCK
 62
     0
 10
1349.023868201491
 20
-100.3332102104348
 30
0.0
  0
POINT
  5
A4
  8
DEFPOINTS
  6
BYBLOCK
 62
     0
 10
2349.023868201492
 20
-100.3332102104348
 30
0.0
  0
LINE
  5
A5
  8
0
  6
BYBLOCK
 62
     0
 10
1349.023868201491
 20
-100.9582102104348
 30
0.0
 11
1349.023868201491
 21
-214.6924321594318
 31
0.0
  0
LINE
  5
A6
  8
0
  6
BYBLOCK
 62
     0
 10
2349.023868201492
 20
-100.9582102104348
 30
0.0
 11
2349.023868201492
 21
-214.6924321594318
 31
0.0
  0
LINE
  5
A7
  8
0
  6
BYBLOCK
 62
     0
 10
1429.023868201491
 20
-213.4424321594318
 30
0.0
 11
2269.023868201492
 21
-213.4424321594318
 31
0.0
  0
SOLID
  5
A8
  8
0
  6
BYBLOCK
 62
     0
 10
1349.023868201491
 20
-213.4424321594318
 30
0.0
 11
1429.023868201491
 21
-226.7757654927679
 31
0.0
 12
1429.023868201491
 22
-200.1090988260958
 32
0.0
 13
1429.023868201491
 23
-200.1090988260958
 33
0.0
  0
SOLID
  5
A9
  8
0
  6
BYBLOCK
 62
     0
 10
2349.023868201492
 20
-213.4424321594318
 30
0.0
 11
2269.023868201492
 21
-226.7757654927679
 31
0.0
 12
2269.023868201492
 22
-200.1090988260958
 32
0.0
 13
2269.023868201492
 23
-200.1090988260958
 33
0.0
  0
TEXT
  5
AA
  8
0
  6
BYBLOCK
 62
     0
 10
1735.823868201492
 20
-212.8174321594318
 30
0.0
 40
80.0
  1
1000
  0
ENDBLK
  5
111
  8
INFO
  0
BLOCK
  8
0
  2
*D2
 70
     1
 10
0.0
 20
0.0
 30
0.0
  3
*D2
  1

  0
LINE
  5
AE
  8
INFO
 62
     0
 10
1349.023868201491
 20
-157.8878211849333
 30
0.0
 11
1349.023868201491
 21
-271.1145431339303
 31
0.0
  0
LINE
  5
AF
  8
INFO
 62
     0
 10
2349.023868201492
 20
-157.8878211849333
 30
0.0
 11
2349.023868201492
 21
-271.1145431339303
 31
0.0
  0
LINE
  5
B0
  8
INFO
 62
     0
 10
1429.023868201491
 20
-270.9345431339303
 30
0.0
 11
1735.733868201492
 21
-270.9345431339303
 31
0.0
  0
LINE
  5
B1
  8
INFO
 62
     0
 10
2269.023868201492
 20
-270.9345431339303
 30
0.0
 11
1962.313868201492
 21
-270.9345431339303
 31
0.0
  0
SOLID
  5
B2
  8
INFO
 62
     0
 10
1429.023868201491
 20
-257.601209800597
 30
0.0
 11
1429.023868201491
 21
-284.2678764672636
 31
0.0
 12
1349.023868201491
 22
-270.9345431339303
 32
0.0
 13
1349.023868201491
 23
-270.9345431339303
 33
0.0
  0
SOLID
  5
B3
  8
INFO
 62
     0
 10
2269.023868201492
 20
-284.2678764672637
 30
0.0
 11
2269.023868201492
 21
-257.601209800597
 31
0.0
 12
2349.023868201492
 22
-270.9345431339303
 32
0.0
 13
2349.023868201492
 23
-270.9345431339303
 33
0.0
  0
TEXT
  5
B4
  8
INFO
 62
     0
 10
1735.823868201492
 20
-310.9345431339303
 30
0.0
 40
80.0
  1
1000
  0
POINT
  5
B5
  8
DEFPOINTS
 62
     0
 10
1349.023868201491
 20
-157.8253211849333
 30
0.0
  0
POINT
  5
11E
  8
DEFPOINTS
 62
     0
 10
2349.023868201492
 20
-157.8253211849333
 30
0.0
  0
POINT
  5
11F
  8
DEFPOINTS
 62
     0
 10
2349.023868201492
 20
-270.9345431339303
 30
0.0
  0
ENDBLK
  5
113
  8
INFO
  0
BLOCK
  8
0
  2
*D3
 70
     1
 10
0.0
 20
0.0
 30
0.0
  3
*D3
  1

  0
POINT
  5
BA
  8
DEFPOINTS
  6
BYBLOCK
 62
     0
 10
1349.023868201491
 20
299.6667897895652
 30
0.0
  0
POINT
  5
BB
  8
DEFPOINTS
  6
BYBLOCK
 62
     0
 10
1549.023868201491
 20
299.6667897895652
 30
0.0
  0
LINE
  5
BC
  8
0
  6
BYBLOCK
 62
     0
 10
1349.023868201491
 20
300.2917897895652
 30
0.0
 11
1349.023868201491
 21
389.9004607385603
 31
0.0
  0
LINE
  5
BD
  8
0
  6
BYBLOCK
 62
     0
 10
1549.023868201491
 20
300.2917897895652
 30
0.0
 11
1549.023868201491
 21
389.9004607385603
 31
0.0
  0
LINE
  5
BE
  8
0
  6
BYBLOCK
 62
     0
 10
1269.023868201491
 20
388.6504607385603
 30
0.0
 11
1189.023868201491
 21
388.6504607385603
 31
0.0
  0
SOLID
  5
BF
  8
0
  6
BYBLOCK
 62
     0
 10
1349.023868201491
 20
388.6504607385603
 30
0.0
 11
1269.023868201491
 21
375.3171274052243
 31
0.0
 12
1269.023868201491
 22
401.9837940718963
 32
0.0
 13
1269.023868201491
 23
401.9837940718963
 33
0.0
  0
LINE
  5
C0
  8
0
  6
BYBLOCK
 62
     0
 10
1629.023868201491
 20
388.6504607385603
 30
0.0
 11
1709.023868201491
 21
388.6504607385603
 31
0.0
  0
SOLID
  5
C1
  8
0
  6
BYBLOCK
 62
     0
 10
1549.023868201491
 20
388.6504607385603
 30
0.0
 11
1629.023868201491
 21
375.3171274052243
 31
0.0
 12
1629.023868201491
 22
401.9837940718963
 32
0.0
 13
1629.023868201491
 23
401.9837940718963
 33
0.0
  0
TEXT
  5
C2
  8
0
  6
BYBLOCK
 62
     0
 10
1355.823868201491
 20
389.2754607385603
 30
0.0
 40
80.0
  1
200
  0
ENDBLK
  5
115
  8
INFO
  0
BLOCK
  8
0
  2
*D4
 70
     1
 10
0.0
 20
0.0
 30
0.0
  3
*D4
  1

  0
LINE
  5
C6
  8
INFO
 62
     0
 10
1349.023868201491
 20
345.1586252640627
 30
0.0
 11
1349.023868201491
 21
434.2597962130578
 31
0.0
  0
LINE
  5
C7
  8
INFO
 62
     0
 10
1549.023868201491
 20
345.1586252640627
 30
0.0
 11
1549.023868201491
 21
434.2597962130578
 31
0.0
  0
LINE
  5
C8
  8
INFO
 62
     0
 10
1269.023868201491
 20
434.0797962130578
 30
0.0
 11
1189.023868201491
 21
434.0797962130578
 31
0.0
  0
LINE
  5
C9
  8
INFO
 62
     0
 10
1629.023868201491
 20
434.0797962130578
 30
0.0
 11
1709.023868201491
 21
434.0797962130578
 31
0.0
  0
SOLID
  5
CA
  8
INFO
 62
     0
 10
1269.023868201491
 20
420.7464628797245
 30
0.0
 11
1269.023868201491
 21
447.4131295463911
 31
0.0
 12
1349.023868201491
 22
434.0797962130578
 32
0.0
 13
1349.023868201491
 23
434.0797962130578
 33
0.0
  0
SOLID
  5
CB
  8
INFO
 62
     0
 10
1629.023868201491
 20
447.4131295463911
 30
0.0
 11
1629.023868201491
 21
420.7464628797245
 31
0.0
 12
1549.023868201491
 22
434.0797962130578
 32
0.0
 13
1549.023868201491
 23
434.0797962130578
 33
0.0
  0
TEXT
  5
CC
  8
INFO
 62
     0
 10
1355.823868201491
 20
394.0797962130578
 30
0.0
 40
80.0
  1
200
  0
POINT
  5
CD
  8
DEFPOINTS
 62
     0
 10
1349.023868201491
 20
345.0961252640627
 30
0.0
  0
POINT
  5
CE
  8
DEFPOINTS
 62
     0
 10
1549.023868201491
 20
345.0961252640627
 30
0.0
  0
POINT
  5
120
  8
DEFPOINTS
 62
     0
 10
1549.023868201491
 20
434.0797962130578
 30
0.0
  0
ENDBLK
  5
117
  8
INFO
  0
BLOCK
  8
0
  2
*D5
 70
     1
 10
0.0
 20
0.0
 30
0.0
  3
*D5
  1

  0
TEXT
  5
D4
  8
0
  6
BYBLOCK
 62
     0
 10
2459.896890015522
 20
522.41489102002
 30
0.0
 40
80.0
  1
30\U+00B0
 50
350.7195182836475
 41
0.9999999999999999
  0
POINT
  5
D5
  8
DEFPOINTS
  6
BYBLOCK
 62
     0
 10
2349.023868201492
 20
299.6667897895652
 30
0.0
  0
POINT
  5
D6
  8
DEFPOINTS
  6
BYBLOCK
 62
     0
 10
2349.023868201492
 20
368.0657424028286
 30
0.0
  0
POINT
  5
D7
  8
DEFPOINTS
  6
BYBLOCK
 62
     0
 10
2349.023868201492
 20
568.0657424028286
 30
0.0
  0
POINT
  5
D8
  8
DEFPOINTS
  6
BYBLOCK
 62
     0
 10
2149.023868201492
 20
646.0769513033407
 30
0.0
  0
SOLID
  5
D9
  8
0
  6
BYBLOCK
 62
     0
 10
2349.023868201492
 20
547.7016850757595
 30
0.0
 11
2272.221246416836
 21
521.641465107752
 31
0.0
 12
2267.920776253409
 22
547.9590840632137
 32
0.0
 13
2267.920776253409
 23
547.9590840632137
 33
0.0
  0
SOLID
  5
DA
  8
0
  6
BYBLOCK
 62
     0
 10
2225.006420558394
 20
514.4713101324228
 30
0.0
 11
2295.115059017172
 21
555.2457701685077
 31
0.0
 12
2304.549552085158
 22
530.3038085042458
 32
0.0
 13
2304.549552085158
 23
530.3038085042458
 33
0.0
  0
ARC
  5
DB
  8
0
  6
BYBLOCK
 62
     0
 10
2349.023868201492
 20
299.6667897895652
 30
0.0
 40
248.0348952861944
 50
108.5609634327053
 51
101.4390365672947
  0
ARC
  5
DC
  8
0
  6
BYBLOCK
 62
     0
 10
2349.023868201492
 20
299.6667897895652
 30
0.0
 40
248.0348952861944
 50
63.63342592465724
 51
90.0
  0
LINE
  5
DD
  8
0
  6
BYBLOCK
 62
     0
 10
2459.179278551803
 20
521.8988640952061
 30
0.0
 11
2630.951087771698
 21
493.8302328972979
 31
0.0
  0
ENDBLK
  5
119
  8
INFO
  0
BLOCK
  8
0
  2
*D6
 70
     1
 10
0.0
 20
0.0
 30
0.0
  3
*D6
  1

  0
LINE
  5
E2
  8
INFO
 62
     0
 10
2349.023868201492
 20
568.1282424028286
 30
0.0
 11
2349.023868201492
 21
645.0075159941317
 31
0.0
  0
ARC
  5
E3
  8
INFO
 62
     0
 10
2349.023868201492
 20
299.6667897895652
 30
0.0
 40
345.1607262045665
 50
76.69030306499896
 51
90.0
  0
LINE
  5
E4
  8
INFO
 62
     0
 10
2508.484850816712
 20
635.5564728045208
 30
0.0
 11
2428.484850816712
 21
635.5564728045208
 31
0.0
  0
ARC
  5
E5
  8
INFO
 62
     0
 10
2349.023868201492
 20
299.6667897895652
 30
0.0
 40
345.1607262045665
 50
103.309696935001
 51
106.690303064999
  0
SOLID
  5
E6
  8
INFO
 62
     0
 10
2271.108059451206
 20
622.3129757019841
 30
0.0
 11
2268.017711721336
 21
648.7999699070575
 31
0.0
 12
2349.023868201492
 22
644.8275159941318
 32
0.0
 13
2349.023868201492
 23
644.8275159941318
 33
0.0
  0
SOLID
  5
E7
  8
INFO
 62
     0
 10
2244.610667517497
 20
642.5280713154397
 30
0.0
 11
2255.177844979439
 21
618.0444875990196
 31
0.0
 12
2176.443505099208
 22
598.584747071405
 32
0.0
 13
2176.443505099208
 23
598.584747071405
 33
0.0
  0
TEXT
  5
E8
  8
INFO
 62
     0
 10
2508.574850816712
 20
595.5564728045208
 30
0.0
 40
80.0
  1
30\U+00B0
  0
POINT
  5
E9
  8
DEFPOINTS
 62
     0
 10
2214.459044079877
 20
617.5161802611889
 30
0.0
  0
POINT
  5
EA
  8
DEFPOINTS
 62
     0
 10
2149.023868201492
 20
646.0769513033407
 30
0.0
  0
POINT
  5
EB
  8
DEFPOINTS
 62
     0
 10
2349.023868201492
 20
368.0657424028286
 30
0.0
  0
POINT
  5
EC
  8
DEFPOINTS
 62
     0
 10
2349.023868201492
 20
568.0657424028286
 30
0.0
  0
POINT
  5
121
  8
DEFPOINTS
 62
     0
 10
2349.023868201492
 20
299.6667897895652
 30
0.0
  0
ENDBLK
  5
11B
  8
INFO
  0
BLOCK
  8
0
  2
NRE-063
 70
     0
 10
0.0
 20
0.0
 30
0.0
  3
NRE-063
  1

  0
POLYLINE
  5
F2
  8
0
 66
     1
 10
0.0
 20
0.0
 30
0.0
  0
VERTEX
  5
12C
  8
0
 10
1349.023868201491
 20
299.6667897895652
 30
0.0
  0
VERTEX
  5
12D
  8
0
 10
1549.023868201491
 20
299.6667897895652
 30
0.0
  0
VERTEX
  5
12E
  8
0
 10
2149.023868201492
 20
646.0769513033407
 30
0.0
  0
VERTEX
  5
12F
  8
0
 10
2349.023868201492
 20
299.6667897895652
 30
0.0
  0
VERTEX
  5
130
  8
0
 10
2349.023868201492
 20
-100.3332102104348
 30
0.0
  0
VERTEX
  5
131
  8
0
 10
1349.023868201491
 20
-100.3332102104348
 30
0.0
  0
VERTEX
  5
132
  8
0
 10
1349.023868201491
 20
299.6667897895652
 30
0.0
  0
SEQEND
  5
12B
  8
0
  0
POLYLINE
  5
F3
  8
0
 66
     1
 10
0.0
 20
0.0
 30
0.0
 40
9.0
 41
9.0
  0
VERTEX
  5
134
  8
0
 10
1349.023868201491
 20
99.6667897895652
 30
0.0
  0
VERTEX
  5
135
  8
0
 10
2349.023868201492
 20
99.6667897895652
 30
0.0
  0
SEQEND
  5
133
  8
0
  0
POLYLINE
  5
F4
  8
0
 66
     1
 10
0.0
 20
0.0
 30
0.0
 40
9.0
 41
9.0
  0
VERTEX
  5
137
  8
0
 10
1429.023868201491
 20
99.66678978956519
 30
0.0
  0
VERTEX
  5
138
  8
0
 10
1517.65656597259
 20
115.2951257795889
 30
0.0
  0
SEQEND
  5
136
  8
0
  0
POLYLINE
  5
F5
  8
0
 66
     1
 10
0.0
 20
0.0
 30
0.0
 40
9.0
 41
9.0
  0
VERTEX
  5
13A
  8
0
 10
1614.634810850471
 20
139.086982225281
 30
0.0
  0
VERTEX
  5
13B
  8
0
 10
1783.779482591934
 20
200.6506080239014
 30
0.0
  0
SEQEND
  5
139
  8
0
  0
POLYLINE
  5
F6
  8
0
 66
     1
 10
0.0
 20
0.0
 30
0.0
 40
9.0
 41
9.0
  0
VERTEX
  5
13D
  8
0
 10
1777.149433061802
 20
214.8687951245911
 30
0.0
  0
VERTEX
  5
13E
  8
0
 10
1699.207146721202
 20
169.8687951245912
 30
0.0
  0
SEQEND
  5
13C
  8
0
  0
POLYLINE
  5
F7
  8
0
 66
     1
 10
0.0
 20
0.0
 30
0.0
 40
9.0
 41
9.0
  0
VERTEX
  5
140
  8
0
 10
2242.773868201492
 20
483.6971880937584
 30
0.0
  0
VERTEX
  5
141
  8
0
 10
1777.149433061802
 20
214.8687951245911
 30
0.0
  0
SEQEND
  5
13F
  8
0
  0
POLYLINE
  5
F8
  8
0
 66
     1
 10
0.0
 20
0.0
 30
0.0
 40
9.0
 41
9.0
  0
VERTEX
  5
143
  8
0
 10
1783.779482591934
 20
200.6506080239014
 30
0.0
 42
0.0475603427999526
  0
VERTEX
  5
144
  8
0
 10
1908.863706687716
 20
262.0465529991477
 30
0.0
 42
-0.0138711551404946
  0
VERTEX
  5
145
  8
0
 10
2255.273868201492
 20
462.0465529991475
 30
0.0
 42
-193.124374942526
  0
SEQEND
  5
142
  8
0
  0
POLYLINE
  5
F9
  8
0
 66
     1
 10
0.0
 20
0.0
 30
0.0
 40
9.0
 41
9.0
  0
VERTEX
  5
147
  8
0
 10
1517.65656597259
 20
115.2951257795889
 30
0.0
 42
0.0435680985013076
  0
VERTEX
  5
148
  8
0
 10
1614.634810850471
 20
139.086982225281
 30
0.0
 42
22.95257388774862
  0
SEQEND
  5
146
  8
0
  0
LINE
  5
FA
  8
0
 10
1789.298872664874
 20
117.8641620116801
 30
0.0
 11
1789.298872664874
 21
179.351980072582
 31
0.0
  0
LINE
  5
FB
  8
0
 10
1789.298872664874
 20
117.8641620116801
 30
0.0
 11
2318.019467358107
 21
117.8641620116801
 31
0.0
  0
LINE
  5
FC
  8
0
 10
2318.019467358107
 20
117.8641620116801
 30
0.0
 11
2318.019467358107
 21
294.4342397155514
 31
0.0
  0
LINE
  5
FD
  8
0
 10
2318.019467358107
 20
294.4342397155514
 30
0.0
 11
2243.553611150961
 21
419.3433287955232
 31
0.0
  0
LINE
  5
FE
  8
0
 10
2243.553611150961
 20
419.3433287955232
 30
0.0
 11
1883.0172238082
 21
207.6330083209947
 31
0.0
  0
LINE
  5
FF
  8
0
 10
1883.0172238082
 20
207.6330083209947
 30
0.0
 11
1789.298872664874
 21
179.351980072582
 31
0.0
  0
TEXT
  5
100
  8
0
 10
1921.747612484927
 20
164.4474649014494
 30
0.0
 40
25.0
  1
BHKW Kirchmöser
  0
TEXT
  5
101
  8
0
 10
1705.672944525725
 20
-84.9255281198019
 30
0.0
 40
80.0
  1
NRE-063
  0
TEXT
  5
102
  8
0
 62
     2
 10
1404.62649807673
 20
-72.60198937627578
 30
0.0
 40
25.0
  1
DL 12/12
  0
DIMENSION
  5
103
  8
INFO
  2
*D2
 10
2349.023868201492
 20
-270.9345431339303
 30
0.0
 11
1849.023868201492
 21
-270.9345431339303
 31
0.0
 70
    32
  3
STANDARD
 13
1349.023868201491
 23
-157.8253211849333
 33
0.0
 14
2349.023868201492
 24
-157.8253211849333
 34
0.0
1001
ACAD
1000
DSTYLE
1002
{
1070
    41
1040
80.0
1070
   140
1040
80.0
1070
   271
1070
     0
1070
   272
1070
     0
1002
}
  0
DIMENSION
  5
104
  8
INFO
  2
*D4
 10
1549.023868201491
 20
434.0797962130578
 30
0.0
 11
1449.023868201491
 21
434.0797962130578
 31
0.0
 70
    32
  3
STANDARD
 13
1349.023868201491
 23
345.0961252640627
 33
0.0
 14
1549.023868201491
 24
345.0961252640627
 34
0.0
1001
ACAD
1000
DSTYLE
1002
{
1070
    41
1040
80.0
1070
   140
1040
80.0
1070
   271
1070
     0
1070
   272
1070
     0
1002
}
  0
DIMENSION
  5
105
  8
INFO
  2
*D6
 10
2349.023868201492
 20
299.6667897895652
 30
0.0
 11
2594.974850816712
 21
635.5564728045208
 31
0.0
 70
    34
  3
STANDARD
 13
2349.023868201492
 23
368.0657424028286
 33
0.0
 14
2349.023868201492
 24
568.0657424028286
 34
0.0
 15
2149.023868201492
 25
646.0769513033407
 35
0.0
 16
2214.459044079877
 26
617.5161802611889
 36
0.0
1001
ACAD
1000
DSTYLE
1002
{
1070
    41
1040
80.0
1070
   140
1040
80.0
1070
   271
1070
     0
1070
   272
1070
     0
1002
}
  0
TEXT
  5
106
  8
0
 10
1503.214808024939
 20
194.9948519117207
 30
0.0
 40
50.0
  1
1000
  0
TEXT
  5
107
  8
0
 10
1793.698221265198
 20
25.98632057193348
 30
0.0
 40
50.0
  1
EvSta
  0
ENDBLK
  5
11D
  8
0
  0
ENDSEC
  0
SECTION
  2
ENTITIES
  0
INSERT
  5
10A
  8
0
  2
NRE-063
 10
0.0
 20
0.0
 30
0.0
  0
ENDSEC
  0
EOF
