  0
SECTION
  2
HEADER
  9
$ACADVER
  1
AC1009
  9
$DWGCODEPAGE
  3
ansi_1252
  9
$INSBASE
 10
0.0
 20
0.0
 30
0.0
  9
$EXTMIN
 10
-90.29959280214894
 20
-200.0
 30
0.0
  9
$EXTMAX
 10
900.0
 20
317.121960154501
 30
0.0
  9
$LIMMIN
 10
0.0
 20
0.0
  9
$LIMMAX
 10
420.0
 20
297.0
  9
$ORTHOMODE
 70
     0
  9
$REGENMODE
 70
     1
  9
$FILLMODE
 70
     1
  9
$QTEXTMODE
 70
     0
  9
$MIRRTEXT
 70
     0
  9
$DRAGMODE
 70
     2
  9
$LTSCALE
 40
1.0
  9
$OSMODE
 70
    37
  9
$ATTMODE
 70
     1
  9
$TEXTSIZE
 40
50.0
  9
$TRACEWID
 40
1.0
  9
$TEXTSTYLE
  7
STANDARD
  9
$CLAYER
  8
0
  9
$CELTYPE
  6
BYLAYER
  9
$CECOLOR
 62
   256
  9
$DIMSCALE
 40
1.0
  9
$DIMASZ
 40
2.5
  9
$DIMEXO
 40
0.625
  9
$DIMDLI
 40
3.75
  9
$DIMRND
 40
0.0
  9
$DIMDLE
 40
0.0
  9
$DIMEXE
 40
1.25
  9
$DIMTP
 40
0.0
  9
$DIMTM
 40
0.0
  9
$DIMTXT
 40
50.0
  9
$DIMCEN
 40
2.5
  9
$DIMTSZ
 40
0.0
  9
$DIMTOL
 70
     0
  9
$DIMLIM
 70
     0
  9
$DIMTIH
 70
     0
  9
$DIMTOH
 70
     0
  9
$DIMSE1
 70
     0
  9
$DIMSE2
 70
     0
  9
$DIMTAD
 70
     1
  9
$DIMZIN
 70
     8
  9
$DIMBLK
  1

  9
$DIMASO
 70
     1
  9
$DIMSHO
 70
     1
  9
$DIMPOST
  1

  9
$DIMAPOST
  1

  9
$DIMALT
 70
     0
  9
$DIMALTD
 70
     3
  9
$DIMALTF
 40
0.03937007874016
  9
$DIMLFAC
 40
1.0
  9
$DIMTOFL
 70
     1
  9
$DIMTVP
 40
0.0
  9
$DIMTIX
 70
     0
  9
$DIMSOXD
 70
     0
  9
$DIMSAH
 70
     0
  9
$DIMBLK1
  1

  9
$DIMBLK2
  1

  9
$DIMSTYLE
  2
ISO-25
  9
$DIMCLRD
 70
     0
  9
$DIMCLRE
 70
     0
  9
$DIMCLRT
 70
     0
  9
$DIMTFAC
 40
1.0
  9
$DIMGAP
 40
0.625
  9
$LUNITS
 70
     2
  9
$LUPREC
 70
     4
  9
$SKETCHINC
 40
1.0
  9
$FILLETRAD
 40
0.0
  9
$AUNITS
 70
     0
  9
$AUPREC
 70
     0
  9
$MENU
  1
.
  9
$ELEVATION
 40
0.0
  9
$PELEVATION
 40
0.0
  9
$THICKNESS
 40
0.0
  9
$LIMCHECK
 70
     0
  9
$CHAMFERA
 40
0.0
  9
$CHAMFERB
 40
0.0
  9
$SKPOLY
 70
     0
  9
$TDCREATE
 40
2453353.800459155
  9
$TDUPDATE
 40
2454566.141497778
  9
$TDINDWG
 40
4895786.051922963
  9
$TDUSRTIMER
 40
9763448.072853334
  9
$USRTIMER
 70
     1
  9
$ANGBASE
 50
0.0
  9
$ANGDIR
 70
     0
  9
$PDMODE
 70
     0
  9
$PDSIZE
 40
0.0
  9
$PLINEWID
 40
9.0
  9
$COORDS
 70
     1
  9
$SPLFRAME
 70
     0
  9
$SPLINETYPE
 70
     6
  9
$SPLINESEGS
 70
     8
  9
$ATTDIA
 70
     0
  9
$ATTREQ
 70
     1
  9
$HANDLING
 70
     1
  9
$HANDSEED
  5
CF
  9
$SURFTAB1
 70
     6
  9
$SURFTAB2
 70
     6
  9
$SURFTYPE
 70
     6
  9
$SURFU
 70
     6
  9
$SURFV
 70
     6
  9
$UCSNAME
  2

  9
$UCSORG
 10
0.0
 20
0.0
 30
0.0
  9
$UCSXDIR
 10
1.0
 20
0.0
 30
0.0
  9
$UCSYDIR
 10
0.0
 20
1.0
 30
0.0
  9
$PUCSNAME
  2

  9
$PUCSORG
 10
0.0
 20
0.0
 30
0.0
  9
$PUCSXDIR
 10
1.0
 20
0.0
 30
0.0
  9
$PUCSYDIR
 10
0.0
 20
1.0
 30
0.0
  9
$USERI1
 70
     0
  9
$USERI2
 70
     0
  9
$USERI3
 70
     0
  9
$USERI4
 70
     0
  9
$USERI5
 70
     0
  9
$USERR1
 40
0.0
  9
$USERR2
 40
0.0
  9
$USERR3
 40
0.0
  9
$USERR4
 40
0.0
  9
$USERR5
 40
0.0
  9
$WORLDVIEW
 70
     1
  9
$SHADEDGE
 70
     3
  9
$SHADEDIF
 70
    70
  9
$TILEMODE
 70
     1
  9
$MAXACTVP
 70
    64
  9
$PLIMCHECK
 70
     0
  9
$PEXTMIN
 10
0.0
 20
0.0
 30
0.0
  9
$PEXTMAX
 10
0.0
 20
0.0
 30
0.0
  9
$PLIMMIN
 10
0.0
 20
0.0
  9
$PLIMMAX
 10
12.0
 20
9.0
  9
$UNITMODE
 70
     0
  9
$VISRETAIN
 70
     1
  9
$PLINEGEN
 70
     0
  9
$PSLTSCALE
 70
     1
  0
ENDSEC
  0
SECTION
  2
TABLES
  0
TABLE
  2
VPORT
 70
     1
  0
VPORT
  2
*ACTIVE
 70
     0
 10
0.0
 20
0.0
 11
1.0
 21
1.0
 12
413.3361692071097
 22
55.33047847332905
 13
0.0
 23
0.0
 14
0.5
 24
0.5
 15
0.5
 25
0.5
 16
0.0
 26
0.0
 36
1.0
 17
0.0
 27
0.0
 37
0.0
 40
1326.99702506343
 41
1.333333333333333
 42
50.0
 43
0.0
 44
0.0
 50
0.0
 51
0.0
 71
    16
 72
   100
 73
     0
 74
     1
 75
     0
 76
     0
 77
     0
 78
     0
  0
ENDTAB
  0
TABLE
  2
LTYPE
 70
     1
  0
LTYPE
  2
CONTINUOUS
 70
     0
  3
CONTINUOUS
 72
    65
 73
     0
 40
0.0
  0
ENDTAB
  0
TABLE
  2
LAYER
 70
     3
  0
LAYER
  2
0
 70
     0
 62
     7
  6
CONTINUOUS
  0
LAYER
  2
INFO
 70
     0
 62
     3
  6
CONTINUOUS
  0
LAYER
  2
DEFPOINTS
 70
     0
 62
     7
  6
CONTINUOUS
  0
ENDTAB
  0
TABLE
  2
STYLE
 70
     1
  0
STYLE
  2
STANDARD
 70
     0
 40
0.0
 41
1.0
 50
0.0
 71
     0
 42
2.5
  3
txt
  4

  0
ENDTAB
  0
TABLE
  2
VIEW
 70
     0
  0
ENDTAB
  0
TABLE
  2
UCS
 70
     0
  0
ENDTAB
  0
TABLE
  2
APPID
 70
     1
  0
APPID
  2
ACAD
 70
     0
  0
ENDTAB
  0
TABLE
  2
DIMSTYLE
 70
     2
  0
DIMSTYLE
  2
STANDARD
 70
     0
  3

  4

  5

  6

  7

 40
1.0
 41
0.18
 42
0.0625
 43
0.38
 44
0.18
 45
0.0
 46
0.0
 47
0.0
 48
0.0
140
0.18
141
0.09
142
0.0
143
25.4
144
1.0
145
0.0
146
1.0
147
0.09
 71
     0
 72
     0
 73
     1
 74
     1
 75
     0
 76
     0
 77
     0
 78
     0
170
     0
171
     2
172
     0
173
     0
174
     0
175
     0
176
     0
177
     0
178
     0
  0
DIMSTYLE
  2
ISO-25
 70
     0
  3

  4

  5

  6

  7

 40
1.0
 41
2.5
 42
0.625
 43
3.75
 44
1.25
 45
0.0
 46
0.0
 47
0.0
 48
0.0
140
2.5
141
2.5
142
0.0
143
0.03937007874016
144
1.0
145
0.0
146
1.0
147
0.625
 71
     0
 72
     0
 73
     0
 74
     0
 75
     0
 76
     0
 77
     1
 78
     8
170
     0
171
     3
172
     1
173
     0
174
     0
175
     0
176
     0
177
     0
178
     0
  0
ENDTAB
  0
ENDSEC
  0
SECTION
  2
BLOCKS
  0
BLOCK
  8
0
  2
$MODEL_SPACE
 70
     0
 10
0.0
 20
0.0
 30
0.0
  3
$MODEL_SPACE
  1

  0
ENDBLK
  5
21
  8
0
  0
BLOCK
 67
     1
  8
0
  2
$PAPER_SPACE
 70
     0
 10
0.0
 20
0.0
 30
0.0
  3
$PAPER_SPACE
  1

  0
ENDBLK
  5
76
 67
     1
  8
0
  0
BLOCK
  8
0
  2
*D1
 70
     1
 10
0.0
 20
0.0
 30
0.0
  3
*D1
  1

  0
LINE
  5
47
  8
INFO
 62
     0
 10
0.0
 20
200.0625
 30
0.0
 11
0.0
 21
266.6769601545012
 31
0.0
  0
LINE
  5
48
  8
INFO
 62
     0
 10
900.0
 20
200.0625
 30
0.0
 11
900.0
 21
266.6769601545012
 31
0.0
  0
LINE
  5
49
  8
INFO
 62
     0
 10
0.18
 20
266.4969601545012
 30
0.0
 11
300.41
 21
266.4969601545012
 31
0.0
  0
LINE
  5
4A
  8
INFO
 62
     0
 10
899.8200000000001
 20
266.4969601545012
 30
0.0
 11
599.59
 21
266.4969601545012
 31
0.0
  0
SOLID
  5
4B
  8
INFO
 62
     0
 10
0.18
 20
266.5269601545012
 30
0.0
 11
0.18
 21
266.4669601545012
 31
0.0
 12
0.0
 22
266.4969601545012
 32
0.0
 13
0.0
 23
266.4969601545012
 33
0.0
  0
SOLID
  5
4C
  8
INFO
 62
     0
 10
899.8200000000001
 20
266.4669601545012
 30
0.0
 11
899.8200000000001
 21
266.5269601545011
 31
0.0
 12
900.0
 22
266.4969601545012
 32
0.0
 13
900.0
 23
266.4969601545012
 33
0.0
  0
TEXT
  5
4D
  8
INFO
 62
     0
 10
300.5
 20
241.4969601545012
 30
0.0
 40
50.0
  1
900.0000
  0
POINT
  5
4E
  8
DEFPOINTS
 62
     0
 10
0.0
 20
200.0
 30
0.0
  0
POINT
  5
BF
  8
DEFPOINTS
 62
     0
 10
900.0
 20
200.0
 30
0.0
  0
POINT
  5
C0
  8
DEFPOINTS
 62
     0
 10
900.0
 20
266.4969601545012
 30
0.0
  0
ENDBLK
  5
BA
  8
0
  0
BLOCK
  8
0
  2
*D2
 70
     1
 10
0.0
 20
0.0
 30
0.0
  3
*D2
  1

  0
LINE
  5
53
  8
INFO
 62
     0
 10
-0.0625
 20
200.0
 30
0.0
 11
-39.85459280214892
 21
200.0
 31
0.0
  0
LINE
  5
54
  8
INFO
 62
     0
 10
-0.0625
 20
-200.0
 30
0.0
 11
-39.85459280214894
 21
-200.0
 31
0.0
  0
LINE
  5
55
  8
INFO
 62
     0
 10
-39.67459280214892
 20
199.82
 30
0.0
 11
-39.67459280214892
 21
149.59
 31
0.0
  0
LINE
  5
56
  8
INFO
 62
     0
 10
-39.67459280214894
 20
-199.82
 30
0.0
 11
-39.67459280214894
 21
-149.59
 31
0.0
  0
SOLID
  5
57
  8
INFO
 62
     0
 10
-39.64459280214891
 20
199.82
 30
0.0
 11
-39.70459280214892
 21
199.82
 31
0.0
 12
-39.67459280214892
 22
200.0
 32
0.0
 13
-39.67459280214892
 23
200.0
 33
0.0
  0
SOLID
  5
58
  8
INFO
 62
     0
 10
-39.70459280214894
 20
-199.82
 30
0.0
 11
-39.64459280214894
 21
-199.82
 31
0.0
 12
-39.67459280214894
 22
-200.0
 32
0.0
 13
-39.67459280214894
 23
-200.0
 33
0.0
  0
TEXT
  5
9F
  8
INFO
 62
     0
 10
-14.67459280214893
 20
-149.5
 30
0.0
 40
50.0
  1
400.0000
 50
90.0
  0
POINT
  5
A0
  8
DEFPOINTS
 62
     0
 10
0.0
 20
200.0
 30
0.0
  0
POINT
  5
C1
  8
DEFPOINTS
 62
     0
 10
0.0
 20
-200.0
 30
0.0
  0
POINT
  5
C2
  8
DEFPOINTS
 62
     0
 10
-39.67459280214894
 20
-200.0
 30
0.0
  0
ENDBLK
  5
BC
  8
0
  0
BLOCK
  8
0
  2
NRE-075
 70
     0
 10
0.0
 20
0.0
 30
0.0
  3
NRE-075
  1

  0
LINE
  5
A4
  8
0
 10
0.0
 20
200.0
 30
0.0
 11
0.0
 21
200.0
 31
0.0
  0
LINE
  5
A5
  8
0
 10
0.0
 20
200.0
 30
0.0
 11
0.0
 21
-200.0
 31
0.0
  0
LINE
  5
A6
  8
0
 10
0.0
 20
-200.0
 30
0.0
 11
900.0
 21
-200.0
 31
0.0
  0
LINE
  5
A7
  8
0
 10
900.0
 20
-200.0
 30
0.0
 11
900.0
 21
200.0
 31
0.0
  0
LINE
  5
A8
  8
0
 10
900.0
 20
200.0
 30
0.0
 11
0.0
 21
200.0
 31
0.0
  0
TEXT
  5
A9
  8
0
 62
     2
 10
314.0936146811541
 20
-182.536863859394
 30
0.0
 40
25.0
  1
FJ 31.03.2008
  0
TEXT
  5
AA
  8
0
 10
270.4599835765785
 20
-133.5233639274754
 30
0.0
 40
50.0
  1
NRE-075
  0
TEXT
  5
AB
  8
0
 10
318.0475318994049
 20
-68.79157935935416
 30
0.0
 40
50.0
  1
JeBec
  0
POLYLINE
  5
AC
  8
0
 66
     1
 10
0.0
 20
0.0
 30
0.0
 40
9.0
 41
9.0
  0
VERTEX
  5
CD
  8
0
 10
0.0
 20
0.0
 30
0.0
  0
VERTEX
  5
CE
  8
0
 10
900.0
 20
0.0
 30
0.0
  0
SEQEND
  5
CC
  8
0
  0
DIMENSION
  5
AD
  8
INFO
  2
*D1
 10
900.0
 20
266.4969601545012
 30
0.0
 11
450.0
 21
266.4969601545012
 31
0.0
 70
    32
  3
STANDARD
 13
0.0
 23
200.0
 33
0.0
 14
900.0
 24
200.0
 34
0.0
1001
ACAD
1000
DSTYLE
1002
{
1070
   140
1040
50.0
1002
}
  0
DIMENSION
  5
AE
  8
INFO
  2
*D2
 10
-39.67459280214894
 20
-200.0
 30
0.0
 11
-39.67459280214892
 21
0.0
 31
0.0
 70
    32
 53
90.0
  3
STANDARD
 13
0.0
 23
200.0
 33
0.0
 14
0.0
 24
-200.0
 34
0.0
 50
90.0
1001
ACAD
1000
DSTYLE
1002
{
1070
   140
1040
50.0
1002
}
  0
TEXT
  5
AF
  8
0
 10
390.651654886835
 20
130.3642852820508
 30
0.0
 40
50.0
  1
900
  0
TEXT
  5
B0
  8
INFO
 10
191.0933734214392
 20
51.58458105559669
 30
0.0
 40
50.0
  1
Klappbrücke
  0
ENDBLK
  5
BE
  8
0
  0
ENDSEC
  0
SECTION
  2
ENTITIES
  0
INSERT
  5
B3
  8
0
  2
NRE-075
 10
0.0
 20
0.0
 30
0.0
  0
ENDSEC
  0
EOF
