  0
SECTION
  2
HEADER
  9
$ACADVER
  1
AC1009
  9
$DWGCODEPAGE
  3
ansi_1252
  9
$INSBASE
 10
0.0
 20
0.0
 30
0.0
  9
$EXTMIN
 10
-123.4988241363969
 20
-200.0
 30
0.0
  9
$EXTMAX
 10
1000.0
 20
323.6646420896634
 30
0.0
  9
$LIMMIN
 10
0.0
 20
0.0
  9
$LIMMAX
 10
420.0
 20
297.0
  9
$ORTHOMODE
 70
     1
  9
$REGENMODE
 70
     1
  9
$FILLMODE
 70
     1
  9
$QTEXTMODE
 70
     0
  9
$MIRRTEXT
 70
     0
  9
$DRAGMODE
 70
     2
  9
$LTSCALE
 40
1.0
  9
$OSMODE
 70
    37
  9
$ATTMODE
 70
     1
  9
$TEXTSIZE
 40
50.0
  9
$TRACEWID
 40
1.0
  9
$TEXTSTYLE
  7
STANDARD
  9
$CLAYER
  8
0
  9
$CELTYPE
  6
BYLAYER
  9
$CECOLOR
 62
   256
  9
$DIMSCALE
 40
1.0
  9
$DIMASZ
 40
50.0
  9
$DIMEXO
 40
0.625
  9
$DIMDLI
 40
3.75
  9
$DIMRND
 40
0.0
  9
$DIMDLE
 40
0.0
  9
$DIMEXE
 40
1.25
  9
$DIMTP
 40
0.0
  9
$DIMTM
 40
0.0
  9
$DIMTXT
 40
50.0
  9
$DIMCEN
 40
2.5
  9
$DIMTSZ
 40
0.0
  9
$DIMTOL
 70
     0
  9
$DIMLIM
 70
     0
  9
$DIMTIH
 70
     0
  9
$DIMTOH
 70
     0
  9
$DIMSE1
 70
     0
  9
$DIMSE2
 70
     0
  9
$DIMTAD
 70
     1
  9
$DIMZIN
 70
     8
  9
$DIMBLK
  1

  9
$DIMASO
 70
     1
  9
$DIMSHO
 70
     1
  9
$DIMPOST
  1

  9
$DIMAPOST
  1

  9
$DIMALT
 70
     0
  9
$DIMALTD
 70
     3
  9
$DIMALTF
 40
0.03937007874016
  9
$DIMLFAC
 40
1.0
  9
$DIMTOFL
 70
     1
  9
$DIMTVP
 40
0.0
  9
$DIMTIX
 70
     0
  9
$DIMSOXD
 70
     0
  9
$DIMSAH
 70
     0
  9
$DIMBLK1
  1

  9
$DIMBLK2
  1

  9
$DIMSTYLE
  2
ISO-25
  9
$DIMCLRD
 70
     0
  9
$DIMCLRE
 70
     0
  9
$DIMCLRT
 70
     0
  9
$DIMTFAC
 40
1.0
  9
$DIMGAP
 40
0.625
  9
$LUNITS
 70
     2
  9
$LUPREC
 70
     4
  9
$SKETCHINC
 40
1.0
  9
$FILLETRAD
 40
0.0
  9
$AUNITS
 70
     0
  9
$AUPREC
 70
     0
  9
$MENU
  1
.
  9
$ELEVATION
 40
0.0
  9
$PELEVATION
 40
0.0
  9
$THICKNESS
 40
0.0
  9
$LIMCHECK
 70
     0
  9
$CHAMFERA
 40
0.0
  9
$CHAMFERB
 40
0.0
  9
$SKPOLY
 70
     0
  9
$TDCREATE
 40
2453353.758792488
  9
$TDUPDATE
 40
2455891.089217778
  9
$TDINDWG
 40
2440852.080755556
  9
$TDUSRTIMER
 40
4881704.058228148
  9
$USRTIMER
 70
     1
  9
$ANGBASE
 50
0.0
  9
$ANGDIR
 70
     0
  9
$PDMODE
 70
     0
  9
$PDSIZE
 40
0.0
  9
$PLINEWID
 40
9.0
  9
$COORDS
 70
     1
  9
$SPLFRAME
 70
     0
  9
$SPLINETYPE
 70
     6
  9
$SPLINESEGS
 70
     8
  9
$ATTDIA
 70
     0
  9
$ATTREQ
 70
     1
  9
$HANDLING
 70
     1
  9
$HANDSEED
  5
1D3
  9
$SURFTAB1
 70
     6
  9
$SURFTAB2
 70
     6
  9
$SURFTYPE
 70
     6
  9
$SURFU
 70
     6
  9
$SURFV
 70
     6
  9
$UCSNAME
  2

  9
$UCSORG
 10
0.0
 20
0.0
 30
0.0
  9
$UCSXDIR
 10
1.0
 20
0.0
 30
0.0
  9
$UCSYDIR
 10
0.0
 20
1.0
 30
0.0
  9
$PUCSNAME
  2

  9
$PUCSORG
 10
0.0
 20
0.0
 30
0.0
  9
$PUCSXDIR
 10
1.0
 20
0.0
 30
0.0
  9
$PUCSYDIR
 10
0.0
 20
1.0
 30
0.0
  9
$USERI1
 70
     0
  9
$USERI2
 70
     0
  9
$USERI3
 70
     0
  9
$USERI4
 70
     0
  9
$USERI5
 70
     0
  9
$USERR1
 40
0.0
  9
$USERR2
 40
0.0
  9
$USERR3
 40
0.0
  9
$USERR4
 40
0.0
  9
$USERR5
 40
0.0
  9
$WORLDVIEW
 70
     1
  9
$SHADEDGE
 70
     3
  9
$SHADEDIF
 70
    70
  9
$TILEMODE
 70
     1
  9
$MAXACTVP
 70
    64
  9
$PLIMCHECK
 70
     0
  9
$PEXTMIN
 10
0.0
 20
0.0
 30
0.0
  9
$PEXTMAX
 10
0.0
 20
0.0
 30
0.0
  9
$PLIMMIN
 10
0.0
 20
0.0
  9
$PLIMMAX
 10
12.0
 20
9.0
  9
$UNITMODE
 70
     0
  9
$VISRETAIN
 70
     1
  9
$PLINEGEN
 70
     0
  9
$PSLTSCALE
 70
     1
  0
ENDSEC
  0
SECTION
  2
TABLES
  0
TABLE
  2
VPORT
 70
     1
  0
VPORT
  2
*ACTIVE
 70
     0
 10
0.0
 20
0.0
 11
1.0
 21
1.0
 12
438.2505879318015
 22
61.8323210448317
 13
0.0
 23
0.0
 14
0.5
 24
0.5
 15
0.5
 25
0.5
 16
0.0
 26
0.0
 36
1.0
 17
0.0
 27
0.0
 37
0.0
 40
686.0445406005297
 41
1.333333333333333
 42
50.0
 43
0.0
 44
0.0
 50
0.0
 51
0.0
 71
    16
 72
   100
 73
     0
 74
     1
 75
     0
 76
     0
 77
     0
 78
     0
  0
ENDTAB
  0
TABLE
  2
LTYPE
 70
     1
  0
LTYPE
  2
CONTINUOUS
 70
     0
  3
CONTINUOUS
 72
    65
 73
     0
 40
0.0
  0
ENDTAB
  0
TABLE
  2
LAYER
 70
     3
  0
LAYER
  2
0
 70
     0
 62
     7
  6
CONTINUOUS
  0
LAYER
  2
INFO
 70
     0
 62
     3
  6
CONTINUOUS
  0
LAYER
  2
DEFPOINTS
 70
     0
 62
     7
  6
CONTINUOUS
  0
ENDTAB
  0
TABLE
  2
STYLE
 70
     1
  0
STYLE
  2
STANDARD
 70
     0
 40
0.0
 41
1.0
 50
0.0
 71
     0
 42
2.5
  3
txt
  4

  0
ENDTAB
  0
TABLE
  2
VIEW
 70
     0
  0
ENDTAB
  0
TABLE
  2
UCS
 70
     0
  0
ENDTAB
  0
TABLE
  2
APPID
 70
     1
  0
APPID
  2
ACAD
 70
     0
  0
ENDTAB
  0
TABLE
  2
DIMSTYLE
 70
     2
  0
DIMSTYLE
  2
STANDARD
 70
     0
  3

  4

  5

  6

  7

 40
1.0
 41
0.18
 42
0.0625
 43
0.38
 44
0.18
 45
0.0
 46
0.0
 47
0.0
 48
0.0
140
0.18
141
0.09
142
0.0
143
25.4
144
1.0
145
0.0
146
1.0
147
0.09
 71
     0
 72
     0
 73
     1
 74
     1
 75
     0
 76
     0
 77
     0
 78
     0
170
     0
171
     2
172
     0
173
     0
174
     0
175
     0
176
     0
177
     0
178
     0
  0
DIMSTYLE
  2
ISO-25
 70
     0
  3

  4

  5

  6

  7

 40
1.0
 41
2.5
 42
0.625
 43
3.75
 44
1.25
 45
0.0
 46
0.0
 47
0.0
 48
0.0
140
2.5
141
2.5
142
0.0
143
0.03937007874016
144
1.0
145
0.0
146
1.0
147
0.625
 71
     0
 72
     0
 73
     0
 74
     0
 75
     0
 76
     0
 77
     1
 78
     8
170
     0
171
     3
172
     1
173
     0
174
     0
175
     0
176
     0
177
     0
178
     0
  0
ENDTAB
  0
ENDSEC
  0
SECTION
  2
BLOCKS
  0
BLOCK
  8
0
  2
$MODEL_SPACE
 70
     0
 10
0.0
 20
0.0
 30
0.0
  3
$MODEL_SPACE
  1

  0
ENDBLK
  5
21
  8
0
  0
BLOCK
 67
     1
  8
0
  2
$PAPER_SPACE
 70
     0
 10
0.0
 20
0.0
 30
0.0
  3
$PAPER_SPACE
  1

  0
ENDBLK
  5
76
 67
     1
  8
0
  0
BLOCK
  8
0
  2
*D1
 70
     1
 10
0.0
 20
0.0
 30
0.0
  3
*D1
  1

  0
LINE
  5
47
  8
INFO
 62
     0
 10
0.0
 20
200.0625
 30
0.0
 11
0.0
 21
273.6079730357606
 31
0.0
  0
LINE
  5
48
  8
INFO
 62
     0
 10
1000.0
 20
200.0625
 30
0.0
 11
1000.0
 21
273.6079730357605
 31
0.0
  0
LINE
  5
49
  8
INFO
 62
     0
 10
0.18
 20
273.4279730357605
 30
0.0
 11
337.91
 21
273.4279730357605
 31
0.0
  0
LINE
  5
4A
  8
INFO
 62
     0
 10
999.8200000000001
 20
273.4279730357605
 30
0.0
 11
662.09
 21
273.4279730357605
 31
0.0
  0
SOLID
  5
4B
  8
INFO
 62
     0
 10
0.18
 20
273.4579730357605
 30
0.0
 11
0.18
 21
273.3979730357606
 31
0.0
 12
0.0
 22
273.4279730357605
 32
0.0
 13
0.0
 23
273.4279730357605
 33
0.0
  0
SOLID
  5
4C
  8
INFO
 62
     0
 10
999.8200000000001
 20
273.3979730357605
 30
0.0
 11
999.8200000000001
 21
273.4579730357605
 31
0.0
 12
1000.0
 22
273.4279730357605
 32
0.0
 13
1000.0
 23
273.4279730357605
 33
0.0
  0
TEXT
  5
4D
  8
INFO
 62
     0
 10
338.0
 20
248.4279730357605
 30
0.0
 40
50.0
  1
1000.0000
  0
POINT
  5
4E
  8
DEFPOINTS
 62
     0
 10
0.0
 20
200.0
 30
0.0
  0
POINT
  5
BF
  8
DEFPOINTS
 62
     0
 10
1000.0
 20
200.0
 30
0.0
  0
POINT
  5
C0
  8
DEFPOINTS
 62
     0
 10
1000.0
 20
273.4279730357605
 30
0.0
  0
ENDBLK
  5
1A1
  8
0
  0
BLOCK
  8
0
  2
*D2
 70
     1
 10
0.0
 20
0.0
 30
0.0
  3
*D2
  1

  0
LINE
  5
53
  8
INFO
 62
     0
 10
-0.0625
 20
200.0
 30
0.0
 11
-65.63958402166773
 21
200.0
 31
0.0
  0
LINE
  5
54
  8
INFO
 62
     0
 10
-0.0625
 20
-200.0
 30
0.0
 11
-65.63958402166776
 21
-200.0
 31
0.0
  0
LINE
  5
55
  8
INFO
 62
     0
 10
-65.45958402166772
 20
199.82
 30
0.0
 11
-65.45958402166772
 21
149.59
 31
0.0
  0
LINE
  5
56
  8
INFO
 62
     0
 10
-65.45958402166775
 20
-199.82
 30
0.0
 11
-65.45958402166775
 21
-149.59
 31
0.0
  0
SOLID
  5
57
  8
INFO
 62
     0
 10
-65.42958402166772
 20
199.82
 30
0.0
 11
-65.48958402166772
 21
199.82
 31
0.0
 12
-65.45958402166772
 22
200.0
 32
0.0
 13
-65.45958402166772
 23
200.0
 33
0.0
  0
SOLID
  5
58
  8
INFO
 62
     0
 10
-65.48958402166775
 20
-199.82
 30
0.0
 11
-65.42958402166775
 21
-199.82
 31
0.0
 12
-65.45958402166775
 22
-200.0
 32
0.0
 13
-65.45958402166775
 23
-200.0
 33
0.0
  0
TEXT
  5
9F
  8
INFO
 62
     0
 10
-40.45958402166775
 20
-149.5
 30
0.0
 40
50.0
  1
400.0000
 50
90.0
  0
POINT
  5
A0
  8
DEFPOINTS
 62
     0
 10
0.0
 20
200.0
 30
0.0
  0
POINT
  5
C1
  8
DEFPOINTS
 62
     0
 10
0.0
 20
-200.0
 30
0.0
  0
POINT
  5
C2
  8
DEFPOINTS
 62
     0
 10
-65.45958402166775
 20
-200.0
 30
0.0
  0
ENDBLK
  5
1A3
  8
0
  0
BLOCK
  8
0
  2
*D3
 70
     1
 10
0.0
 20
0.0
 30
0.0
  3
*D3
  1

  0
POINT
  5
CF
  8
DEFPOINTS
  6
BYBLOCK
 62
     0
 10
0.0
 20
200.0
 30
0.0
  0
POINT
  5
D0
  8
DEFPOINTS
  6
BYBLOCK
 62
     0
 10
1000.0
 20
200.0
 30
0.0
  0
LINE
  5
D1
  8
0
  6
BYBLOCK
 62
     0
 10
0.0
 20
200.0625
 30
0.0
 11
0.0
 21
273.6079730357605
 31
0.0
  0
LINE
  5
D2
  8
0
  6
BYBLOCK
 62
     0
 10
1000.0
 20
200.0625
 30
0.0
 11
1000.0
 21
273.6079730357605
 31
0.0
  0
LINE
  5
D3
  8
0
  6
BYBLOCK
 62
     0
 10
0.18
 20
273.4279730357605
 30
0.0
 11
333.66
 21
273.4279730357605
 31
0.0
  0
SOLID
  5
D4
  8
0
  6
BYBLOCK
 62
     0
 10
0.0
 20
273.4279730357605
 30
0.0
 11
0.18
 21
273.3979730357605
 31
0.0
 12
0.18
 22
273.4579730357605
 32
0.0
 13
0.18
 23
273.4579730357605
 33
0.0
  0
LINE
  5
D5
  8
0
  6
BYBLOCK
 62
     0
 10
999.8200000000001
 20
273.4279730357605
 30
0.0
 11
666.34
 21
273.4279730357605
 31
0.0
  0
SOLID
  5
D6
  8
0
  6
BYBLOCK
 62
     0
 10
1000.0
 20
273.4279730357605
 30
0.0
 11
999.8200000000001
 21
273.3979730357605
 31
0.0
 12
999.8200000000001
 22
273.4579730357605
 32
0.0
 13
999.8200000000001
 23
273.4579730357605
 33
0.0
  0
TEXT
  5
D7
  8
0
  6
BYBLOCK
 62
     0
 10
333.75
 20
252.6779730357605
 30
0.0
 40
50.0
  1
1000,0000
  0
ENDBLK
  5
1A5
  8
INFO
  0
BLOCK
  8
0
  2
*D4
 70
     1
 10
0.0
 20
0.0
 30
0.0
  3
*D4
  1

  0
POINT
  5
DC
  8
DEFPOINTS
  6
BYBLOCK
 62
     0
 10
0.0
 20
200.0
 30
0.0
  0
POINT
  5
DD
  8
DEFPOINTS
  6
BYBLOCK
 62
     0
 10
0.0
 20
-200.0
 30
0.0
  0
LINE
  5
DE
  8
0
  6
BYBLOCK
 62
     0
 10
-0.0625
 20
200.0
 30
0.0
 11
-65.63958402166776
 21
200.0
 31
0.0
  0
LINE
  5
DF
  8
0
  6
BYBLOCK
 62
     0
 10
-0.0625
 20
-200.0
 30
0.0
 11
-65.63958402166776
 21
-200.0
 31
0.0
  0
LINE
  5
E0
  8
0
  6
BYBLOCK
 62
     0
 10
-65.45958402166775
 20
199.82
 30
0.0
 11
-65.45958402166775
 21
29.33999999999998
 31
0.0
  0
SOLID
  5
E1
  8
0
  6
BYBLOCK
 62
     0
 10
-65.45958402166775
 20
200.0
 30
0.0
 11
-65.48958402166775
 21
199.82
 31
0.0
 12
-65.42958402166775
 22
199.82
 32
0.0
 13
-65.42958402166775
 23
199.82
 33
0.0
  0
LINE
  5
E2
  8
0
  6
BYBLOCK
 62
     0
 10
-65.45958402166775
 20
-199.82
 30
0.0
 11
-65.45958402166775
 21
-29.34
 31
0.0
  0
SOLID
  5
E3
  8
0
  6
BYBLOCK
 62
     0
 10
-65.45958402166775
 20
-200.0
 30
0.0
 11
-65.48958402166775
 21
-199.82
 31
0.0
 12
-65.42958402166775
 22
-199.82
 32
0.0
 13
-65.42958402166775
 23
-199.82
 33
0.0
  0
TEXT
  5
E4
  8
0
  6
BYBLOCK
 62
     0
 10
-44.70958402166777
 20
-153.75
 30
0.0
 40
50.0
  1
400,0000
 50
90.0
  0
ENDBLK
  5
1A7
  8
INFO
  0
BLOCK
  8
0
  2
*D5
 70
     1
 10
0.0
 20
0.0
 30
0.0
  3
*D5
  1

  0
POINT
  5
EA
  8
DEFPOINTS
  6
BYBLOCK
 62
     0
 10
0.0
 20
200.0
 30
0.0
  0
POINT
  5
EB
  8
DEFPOINTS
  6
BYBLOCK
 62
     0
 10
1000.0
 20
200.0
 30
0.0
  0
LINE
  5
EC
  8
0
  6
BYBLOCK
 62
     0
 10
0.0
 20
200.0625
 30
0.0
 11
0.0
 21
273.6079730357605
 31
0.0
  0
LINE
  5
ED
  8
0
  6
BYBLOCK
 62
     0
 10
1000.0
 20
200.0625
 30
0.0
 11
1000.0
 21
273.6079730357605
 31
0.0
  0
LINE
  5
EE
  8
0
  6
BYBLOCK
 62
     0
 10
0.18
 20
273.4279730357605
 30
0.0
 11
337.91
 21
273.4279730357605
 31
0.0
  0
SOLID
  5
EF
  8
0
  6
BYBLOCK
 62
     0
 10
0.0
 20
273.4279730357605
 30
0.0
 11
0.18
 21
273.3979730357605
 31
0.0
 12
0.18
 22
273.4579730357605
 32
0.0
 13
0.18
 23
273.4579730357605
 33
0.0
  0
LINE
  5
F0
  8
0
  6
BYBLOCK
 62
     0
 10
999.8200000000001
 20
273.4279730357605
 30
0.0
 11
662.09
 21
273.4279730357605
 31
0.0
  0
SOLID
  5
F1
  8
0
  6
BYBLOCK
 62
     0
 10
1000.0
 20
273.4279730357605
 30
0.0
 11
999.8200000000001
 21
273.3979730357605
 31
0.0
 12
999.8200000000001
 22
273.4579730357605
 32
0.0
 13
999.8200000000001
 23
273.4579730357605
 33
0.0
  0
TEXT
  5
F2
  8
0
  6
BYBLOCK
 62
     0
 10
338.0
 20
248.4279730357605
 30
0.0
 40
50.0
  1
1000.0000
  0
ENDBLK
  5
1A9
  8
INFO
  0
BLOCK
  8
0
  2
*D6
 70
     1
 10
0.0
 20
0.0
 30
0.0
  3
*D6
  1

  0
POINT
  5
F6
  8
DEFPOINTS
  6
BYBLOCK
 62
     0
 10
0.0
 20
200.0
 30
0.0
  0
POINT
  5
F7
  8
DEFPOINTS
  6
BYBLOCK
 62
     0
 10
1000.0
 20
200.0
 30
0.0
  0
LINE
  5
F8
  8
0
  6
BYBLOCK
 62
     0
 10
0.0
 20
200.0625
 30
0.0
 11
0.0
 21
273.6079730357605
 31
0.0
  0
LINE
  5
F9
  8
0
  6
BYBLOCK
 62
     0
 10
1000.0
 20
200.0625
 30
0.0
 11
1000.0
 21
273.6079730357605
 31
0.0
  0
LINE
  5
FA
  8
0
  6
BYBLOCK
 62
     0
 10
0.18
 20
273.4279730357605
 30
0.0
 11
337.91
 21
273.4279730357605
 31
0.0
  0
SOLID
  5
FB
  8
0
  6
BYBLOCK
 62
     0
 10
0.0
 20
273.4279730357605
 30
0.0
 11
0.18
 21
273.3979730357605
 31
0.0
 12
0.18
 22
273.4579730357605
 32
0.0
 13
0.18
 23
273.4579730357605
 33
0.0
  0
LINE
  5
FC
  8
0
  6
BYBLOCK
 62
     0
 10
999.8200000000001
 20
273.4279730357605
 30
0.0
 11
662.09
 21
273.4279730357605
 31
0.0
  0
SOLID
  5
FD
  8
0
  6
BYBLOCK
 62
     0
 10
1000.0
 20
273.4279730357605
 30
0.0
 11
999.8200000000001
 21
273.3979730357605
 31
0.0
 12
999.8200000000001
 22
273.4579730357605
 32
0.0
 13
999.8200000000001
 23
273.4579730357605
 33
0.0
  0
TEXT
  5
FE
  8
0
  6
BYBLOCK
 62
     0
 10
338.0
 20
248.4279730357605
 30
0.0
 40
50.0
  1
1000.0000
  0
ENDBLK
  5
1AB
  8
INFO
  0
BLOCK
  8
0
  2
*D7
 70
     1
 10
0.0
 20
0.0
 30
0.0
  3
*D7
  1

  0
POINT
  5
102
  8
DEFPOINTS
  6
BYBLOCK
 62
     0
 10
0.0
 20
200.0
 30
0.0
  0
POINT
  5
103
  8
DEFPOINTS
  6
BYBLOCK
 62
     0
 10
1000.0
 20
200.0
 30
0.0
  0
LINE
  5
104
  8
0
  6
BYBLOCK
 62
     0
 10
0.0
 20
200.0625
 30
0.0
 11
0.0
 21
273.6079730357605
 31
0.0
  0
LINE
  5
105
  8
0
  6
BYBLOCK
 62
     0
 10
1000.0
 20
200.0625
 30
0.0
 11
1000.0
 21
273.6079730357605
 31
0.0
  0
LINE
  5
106
  8
0
  6
BYBLOCK
 62
     0
 10
0.18
 20
273.4279730357605
 30
0.0
 11
337.91
 21
273.4279730357605
 31
0.0
  0
SOLID
  5
107
  8
0
  6
BYBLOCK
 62
     0
 10
0.0
 20
273.4279730357605
 30
0.0
 11
0.18
 21
273.3979730357605
 31
0.0
 12
0.18
 22
273.4579730357605
 32
0.0
 13
0.18
 23
273.4579730357605
 33
0.0
  0
LINE
  5
108
  8
0
  6
BYBLOCK
 62
     0
 10
999.8200000000001
 20
273.4279730357605
 30
0.0
 11
662.09
 21
273.4279730357605
 31
0.0
  0
SOLID
  5
109
  8
0
  6
BYBLOCK
 62
     0
 10
1000.0
 20
273.4279730357605
 30
0.0
 11
999.8200000000001
 21
273.3979730357605
 31
0.0
 12
999.8200000000001
 22
273.4579730357605
 32
0.0
 13
999.8200000000001
 23
273.4579730357605
 33
0.0
  0
TEXT
  5
10A
  8
0
  6
BYBLOCK
 62
     0
 10
338.0
 20
248.4279730357605
 30
0.0
 40
50.0
  1
1000.0000
  0
ENDBLK
  5
1AD
  8
INFO
  0
BLOCK
  8
0
  2
*D8
 70
     1
 10
0.0
 20
0.0
 30
0.0
  3
*D8
  1

  0
POINT
  5
10E
  8
DEFPOINTS
  6
BYBLOCK
 62
     0
 10
0.0
 20
200.0
 30
0.0
  0
POINT
  5
10F
  8
DEFPOINTS
  6
BYBLOCK
 62
     0
 10
0.0
 20
-200.0
 30
0.0
  0
LINE
  5
110
  8
0
  6
BYBLOCK
 62
     0
 10
-0.0625
 20
200.0
 30
0.0
 11
-65.63958402166776
 21
200.0
 31
0.0
  0
LINE
  5
111
  8
0
  6
BYBLOCK
 62
     0
 10
-0.0625
 20
-200.0
 30
0.0
 11
-65.63958402166776
 21
-200.0
 31
0.0
  0
LINE
  5
112
  8
0
  6
BYBLOCK
 62
     0
 10
-65.45958402166775
 20
199.82
 30
0.0
 11
-65.45958402166775
 21
25.08999999999998
 31
0.0
  0
SOLID
  5
113
  8
0
  6
BYBLOCK
 62
     0
 10
-65.45958402166775
 20
200.0
 30
0.0
 11
-65.48958402166775
 21
199.82
 31
0.0
 12
-65.42958402166775
 22
199.82
 32
0.0
 13
-65.42958402166775
 23
199.82
 33
0.0
  0
LINE
  5
114
  8
0
  6
BYBLOCK
 62
     0
 10
-65.45958402166775
 20
-199.82
 30
0.0
 11
-65.45958402166775
 21
-25.08999999999998
 31
0.0
  0
SOLID
  5
115
  8
0
  6
BYBLOCK
 62
     0
 10
-65.45958402166775
 20
-200.0
 30
0.0
 11
-65.48958402166775
 21
-199.82
 31
0.0
 12
-65.42958402166775
 22
-199.82
 32
0.0
 13
-65.42958402166775
 23
-199.82
 33
0.0
  0
TEXT
  5
116
  8
0
  6
BYBLOCK
 62
     0
 10
-40.45958402166777
 20
-149.5
 30
0.0
 40
50.0
  1
400.0000
 50
90.0
  0
ENDBLK
  5
1AF
  8
INFO
  0
BLOCK
  8
0
  2
*D9
 70
     1
 10
0.0
 20
0.0
 30
0.0
  3
*D9
  1

  0
POINT
  5
11A
  8
DEFPOINTS
  6
BYBLOCK
 62
     0
 10
0.0
 20
200.0
 30
0.0
  0
POINT
  5
11B
  8
DEFPOINTS
  6
BYBLOCK
 62
     0
 10
1000.0
 20
200.0
 30
0.0
  0
LINE
  5
11C
  8
0
  6
BYBLOCK
 62
     0
 10
0.0
 20
200.0625
 30
0.0
 11
0.0
 21
273.6079730357605
 31
0.0
  0
LINE
  5
11D
  8
0
  6
BYBLOCK
 62
     0
 10
1000.0
 20
200.0625
 30
0.0
 11
1000.0
 21
273.6079730357605
 31
0.0
  0
LINE
  5
11E
  8
0
  6
BYBLOCK
 62
     0
 10
0.18
 20
273.4279730357605
 30
0.0
 11
337.91
 21
273.4279730357605
 31
0.0
  0
SOLID
  5
11F
  8
0
  6
BYBLOCK
 62
     0
 10
0.0
 20
273.4279730357605
 30
0.0
 11
0.18
 21
273.3979730357605
 31
0.0
 12
0.18
 22
273.4579730357605
 32
0.0
 13
0.18
 23
273.4579730357605
 33
0.0
  0
LINE
  5
120
  8
0
  6
BYBLOCK
 62
     0
 10
999.8200000000001
 20
273.4279730357605
 30
0.0
 11
662.09
 21
273.4279730357605
 31
0.0
  0
SOLID
  5
121
  8
0
  6
BYBLOCK
 62
     0
 10
1000.0
 20
273.4279730357605
 30
0.0
 11
999.8200000000001
 21
273.3979730357605
 31
0.0
 12
999.8200000000001
 22
273.4579730357605
 32
0.0
 13
999.8200000000001
 23
273.4579730357605
 33
0.0
  0
TEXT
  5
122
  8
0
  6
BYBLOCK
 62
     0
 10
338.0
 20
248.4279730357605
 30
0.0
 40
50.0
  1
1000.0000
  0
ENDBLK
  5
1B1
  8
INFO
  0
BLOCK
  8
0
  2
*D10
 70
     1
 10
0.0
 20
0.0
 30
0.0
  3
*D10
  1

  0
POINT
  5
126
  8
DEFPOINTS
  6
BYBLOCK
 62
     0
 10
0.0
 20
200.0
 30
0.0
  0
POINT
  5
127
  8
DEFPOINTS
  6
BYBLOCK
 62
     0
 10
0.0
 20
-200.0
 30
0.0
  0
LINE
  5
128
  8
0
  6
BYBLOCK
 62
     0
 10
-0.0625
 20
200.0
 30
0.0
 11
-65.63958402166776
 21
200.0
 31
0.0
  0
LINE
  5
129
  8
0
  6
BYBLOCK
 62
     0
 10
-0.0625
 20
-200.0
 30
0.0
 11
-65.63958402166776
 21
-200.0
 31
0.0
  0
LINE
  5
12A
  8
0
  6
BYBLOCK
 62
     0
 10
-65.45958402166775
 20
199.82
 30
0.0
 11
-65.45958402166775
 21
25.08999999999998
 31
0.0
  0
SOLID
  5
12B
  8
0
  6
BYBLOCK
 62
     0
 10
-65.45958402166775
 20
200.0
 30
0.0
 11
-65.48958402166775
 21
199.82
 31
0.0
 12
-65.42958402166775
 22
199.82
 32
0.0
 13
-65.42958402166775
 23
199.82
 33
0.0
  0
LINE
  5
12C
  8
0
  6
BYBLOCK
 62
     0
 10
-65.45958402166775
 20
-199.82
 30
0.0
 11
-65.45958402166775
 21
-25.08999999999998
 31
0.0
  0
SOLID
  5
12D
  8
0
  6
BYBLOCK
 62
     0
 10
-65.45958402166775
 20
-200.0
 30
0.0
 11
-65.48958402166775
 21
-199.82
 31
0.0
 12
-65.42958402166775
 22
-199.82
 32
0.0
 13
-65.42958402166775
 23
-199.82
 33
0.0
  0
TEXT
  5
12E
  8
0
  6
BYBLOCK
 62
     0
 10
-40.45958402166777
 20
-149.5
 30
0.0
 40
50.0
  1
400.0000
 50
90.0
  0
ENDBLK
  5
1B3
  8
INFO
  0
BLOCK
  8
0
  2
*D11
 70
     1
 10
0.0
 20
0.0
 30
0.0
  3
*D11
  1

  0
LINE
  5
133
  8
INFO
 62
     0
 10
0.0
 20
200.0625
 30
0.0
 11
0.0
 21
273.2196420896635
 31
0.0
  0
LINE
  5
134
  8
INFO
 62
     0
 10
1000.0
 20
200.0625
 30
0.0
 11
1000.0
 21
273.2196420896634
 31
0.0
  0
LINE
  5
135
  8
INFO
 62
     0
 10
50.0
 20
273.0396420896635
 30
0.0
 11
429.16
 21
273.0396420896635
 31
0.0
  0
LINE
  5
136
  8
INFO
 62
     0
 10
950.0
 20
273.0396420896634
 30
0.0
 11
570.84
 21
273.0396420896634
 31
0.0
  0
SOLID
  5
137
  8
INFO
 62
     0
 10
50.0
 20
281.3729754229968
 30
0.0
 11
50.0
 21
264.7063087563302
 31
0.0
 12
0.0
 22
273.0396420896635
 32
0.0
 13
0.0
 23
273.0396420896635
 33
0.0
  0
SOLID
  5
138
  8
INFO
 62
     0
 10
950.0
 20
264.7063087563301
 30
0.0
 11
950.0
 21
281.3729754229967
 31
0.0
 12
1000.0
 22
273.0396420896634
 32
0.0
 13
1000.0
 23
273.0396420896634
 33
0.0
  0
TEXT
  5
139
  8
INFO
 62
     0
 10
429.25
 20
248.0396420896634
 30
0.0
 40
50.0
  1
1000
  0
POINT
  5
13A
  8
DEFPOINTS
 62
     0
 10
0.0
 20
200.0
 30
0.0
  0
POINT
  5
1BA
  8
DEFPOINTS
 62
     0
 10
1000.0
 20
200.0
 30
0.0
  0
POINT
  5
1BB
  8
DEFPOINTS
 62
     0
 10
1000.0
 20
273.0396420896634
 30
0.0
  0
ENDBLK
  5
1B5
  8
INFO
  0
BLOCK
  8
0
  2
*D12
 70
     1
 10
0.0
 20
0.0
 30
0.0
  3
*D12
  1

  0
LINE
  5
13F
  8
INFO
 62
     0
 10
-0.0625
 20
200.0
 30
0.0
 11
-73.05382413639687
 21
200.0
 31
0.0
  0
LINE
  5
140
  8
INFO
 62
     0
 10
-0.0625
 20
-200.0
 30
0.0
 11
-73.0538241363969
 21
-200.0
 31
0.0
  0
LINE
  5
141
  8
INFO
 62
     0
 10
-72.87382413639686
 20
150.0
 30
0.0
 11
-72.87382413639688
 21
58.34
 31
0.0
  0
LINE
  5
142
  8
INFO
 62
     0
 10
-72.87382413639689
 20
-150.0
 30
0.0
 11
-72.87382413639688
 21
-58.34
 31
0.0
  0
SOLID
  5
143
  8
INFO
 62
     0
 10
-64.54049080306353
 20
150.0
 30
0.0
 11
-81.20715746973019
 21
150.0
 31
0.0
 12
-72.87382413639686
 22
200.0
 32
0.0
 13
-72.87382413639686
 23
200.0
 33
0.0
  0
SOLID
  5
144
  8
INFO
 62
     0
 10
-81.20715746973022
 20
-150.0
 30
0.0
 11
-64.54049080306356
 21
-150.0
 31
0.0
 12
-72.87382413639689
 22
-200.0
 32
0.0
 13
-72.87382413639689
 23
-200.0
 33
0.0
  0
TEXT
  5
145
  8
INFO
 62
     0
 10
-47.87382413639688
 20
-58.25
 30
0.0
 40
50.0
  1
400
 50
90.0
  0
POINT
  5
146
  8
DEFPOINTS
 62
     0
 10
0.0
 20
200.0
 30
0.0
  0
POINT
  5
1BC
  8
DEFPOINTS
 62
     0
 10
0.0
 20
-200.0
 30
0.0
  0
POINT
  5
1BD
  8
DEFPOINTS
 62
     0
 10
-72.87382413639689
 20
-200.0
 30
0.0
  0
ENDBLK
  5
1B7
  8
INFO
  0
BLOCK
  8
0
  2
NRE-079
 70
     0
 10
0.0
 20
0.0
 30
0.0
  3
NRE-079
  1

  0
LINE
  5
188
  8
0
 10
0.0
 20
200.0
 30
0.0
 11
0.0
 21
-200.0
 31
0.0
  0
LINE
  5
189
  8
0
 10
0.0
 20
-200.0
 30
0.0
 11
1000.0
 21
-200.0
 31
0.0
  0
LINE
  5
18A
  8
0
 10
1000.0
 20
-200.0
 30
0.0
 11
1000.0
 21
200.0
 31
0.0
  0
LINE
  5
18B
  8
0
 10
1000.0
 20
200.0
 30
0.0
 11
0.0
 21
200.0
 31
0.0
  0
TEXT
  5
18C
  8
0
 62
     2
 10
397.1382782310354
 20
-163.0760781795933
 30
0.0
 40
25.0
  1
FJ 31.03.2008
  0
TEXT
  5
18D
  8
0
 10
358.403071063927
 20
-127.5688049430772
 30
0.0
 40
50.0
  1
NRE-079
  0
TEXT
  5
18E
  8
0
 10
398.7522451963316
 20
-67.85202722711813
 30
0.0
 40
50.0
  1
JeBec
  0
POLYLINE
  5
18F
  8
0
 66
     1
 10
0.0
 20
0.0
 30
0.0
 40
9.0
 41
9.0
  0
VERTEX
  5
1C8
  8
0
 10
0.0
 20
0.0
 30
0.0
  0
VERTEX
  5
1C9
  8
0
 10
50.0
 20
0.0
 30
0.0
  0
VERTEX
  5
1CA
  8
0
 10
1000.0
 20
0.0
 30
0.0
  0
SEQEND
  5
1C7
  8
0
  0
TEXT
  5
190
  8
0
 10
808.616681634541
 20
119.5734498419126
 30
0.0
 40
50.0
  1
1000
  0
DIMENSION
  5
191
  8
INFO
  2
*D11
 10
1000.0
 20
273.0396420896634
 30
0.0
 11
500.0
 21
273.0396420896634
 31
0.0
 70
    32
  3
STANDARD
 13
0.0
 23
200.0
 33
0.0
 14
1000.0
 24
200.0
 34
0.0
1001
ACAD
1000
DSTYLE
1002
{
1070
    41
1040
50.0
1070
   140
1040
50.0
1070
   271
1070
     0
1002
}
  0
DIMENSION
  5
192
  8
INFO
  2
*D12
 10
-72.87382413639689
 20
-200.0
 30
0.0
 11
-72.87382413639688
 21
0.0
 31
0.0
 70
    32
 53
90.0
  3
STANDARD
 13
0.0
 23
200.0
 33
0.0
 14
0.0
 24
-200.0
 34
0.0
 50
90.0
1001
ACAD
1000
DSTYLE
1002
{
1070
    41
1040
50.0
1070
   140
1040
50.0
1070
   271
1070
     0
1002
}
  0
POLYLINE
  5
193
  8
0
 66
     1
 10
0.0
 20
0.0
 30
0.0
 40
9.0
 41
9.0
  0
VERTEX
  5
1CC
  8
0
 10
525.0
 20
25.0
 30
0.0
  0
VERTEX
  5
1CD
  8
0
 10
873.220230602817
 20
25.0
 30
0.0
  0
SEQEND
  5
1CB
  8
0
  0
POLYLINE
  5
194
  8
0
 66
     1
 10
0.0
 20
0.0
 30
0.0
 40
9.0
 41
9.0
  0
VERTEX
  5
1CF
  8
0
 10
204.9615287059169
 20
0.0
 30
0.0
  0
VERTEX
  5
1D0
  8
0
 10
313.0500974258039
 20
10.87078184307902
 30
0.0
  0
VERTEX
  5
1D1
  8
0
 10
468.6528028079624
 20
24.6217185977814
 30
0.0
  0
VERTEX
  5
1D2
  8
0
 10
525.0
 20
25.0
 30
0.0
  0
SEQEND
  5
1CE
  8
0
  0
LINE
  5
195
  8
0
 10
878.6374101056081
 20
12.0
 30
0.0
 11
931.9678301632079
 21
12.0
 31
0.0
  0
LINE
  5
196
  8
0
 10
931.9678301632079
 20
12.0
 30
0.0
 11
931.9678301632079
 21
58.29587074788385
 31
0.0
  0
LINE
  5
197
  8
0
 10
878.6374101056081
 20
12.0
 30
0.0
 11
878.6374101056081
 21
38.0
 31
0.0
  0
LINE
  5
198
  8
0
 10
878.6374101056081
 20
38.0
 30
0.0
 11
725.1498596959307
 21
38.0
 31
0.0
  0
ENDBLK
  5
1B9
  8
0
  0
ENDSEC
  0
SECTION
  2
ENTITIES
  0
INSERT
  5
19B
  8
0
  2
NRE-079
 10
0.0
 20
0.0
 30
0.0
  0
ENDSEC
  0
EOF
