  0
SECTION
  2
HEADER
  9
$ACADVER
  1
AC1009
  9
$DWGCODEPAGE
  3
ansi_1252
  9
$INSBASE
 10
0.0
 20
0.0
 30
0.0
  9
$EXTMIN
 10
-1512.245426157444
 20
-1492.515644572729
 30
0.0
  9
$EXTMAX
 10
2598.370912619655
 20
332.5205290872709
 30
0.0
  9
$LIMMIN
 10
0.0
 20
0.0
  9
$LIMMAX
 10
420.0
 20
297.0
  9
$ORTHOMODE
 70
     0
  9
$REGENMODE
 70
     1
  9
$FILLMODE
 70
     1
  9
$QTEXTMODE
 70
     0
  9
$MIRRTEXT
 70
     0
  9
$DRAGMODE
 70
     2
  9
$LTSCALE
 40
1.0
  9
$OSMODE
 70
    37
  9
$ATTMODE
 70
     1
  9
$TEXTSIZE
 40
100.0
  9
$TRACEWID
 40
1.0
  9
$TEXTSTYLE
  7
STANDARD
  9
$CLAYER
  8
0
  9
$CELTYPE
  6
BYLAYER
  9
$CECOLOR
 62
   256
  9
$DIMSCALE
 40
1.0
  9
$DIMASZ
 40
50.0
  9
$DIMEXO
 40
0.625
  9
$DIMDLI
 40
3.75
  9
$DIMRND
 40
0.0
  9
$DIMDLE
 40
0.0
  9
$DIMEXE
 40
1.25
  9
$DIMTP
 40
0.0
  9
$DIMTM
 40
0.0
  9
$DIMTXT
 40
50.0
  9
$DIMCEN
 40
2.5
  9
$DIMTSZ
 40
0.0
  9
$DIMTOL
 70
     0
  9
$DIMLIM
 70
     0
  9
$DIMTIH
 70
     0
  9
$DIMTOH
 70
     0
  9
$DIMSE1
 70
     0
  9
$DIMSE2
 70
     0
  9
$DIMTAD
 70
     1
  9
$DIMZIN
 70
     8
  9
$DIMBLK
  1

  9
$DIMASO
 70
     1
  9
$DIMSHO
 70
     1
  9
$DIMPOST
  1

  9
$DIMAPOST
  1

  9
$DIMALT
 70
     0
  9
$DIMALTD
 70
     3
  9
$DIMALTF
 40
0.03937007874016
  9
$DIMLFAC
 40
1.0
  9
$DIMTOFL
 70
     1
  9
$DIMTVP
 40
0.0
  9
$DIMTIX
 70
     0
  9
$DIMSOXD
 70
     0
  9
$DIMSAH
 70
     0
  9
$DIMBLK1
  1

  9
$DIMBLK2
  1

  9
$DIMSTYLE
  2
ISO-25
  9
$DIMCLRD
 70
     0
  9
$DIMCLRE
 70
     0
  9
$DIMCLRT
 70
     0
  9
$DIMTFAC
 40
1.0
  9
$DIMGAP
 40
0.625
  9
$LUNITS
 70
     2
  9
$LUPREC
 70
     4
  9
$SKETCHINC
 40
1.0
  9
$FILLETRAD
 40
0.0
  9
$AUNITS
 70
     0
  9
$AUPREC
 70
     0
  9
$MENU
  1
.
  9
$ELEVATION
 40
0.0
  9
$PELEVATION
 40
0.0
  9
$THICKNESS
 40
0.0
  9
$LIMCHECK
 70
     0
  9
$CHAMFERA
 40
0.0
  9
$CHAMFERB
 40
0.0
  9
$SKPOLY
 70
     0
  9
$TDCREATE
 40
2453353.758792488
  9
$TDUPDATE
 40
2456001.085345185
  9
$TDINDWG
 40
9791572.06217926
  9
$TDUSRTIMER
 40
9791572.06217926
  9
$USRTIMER
 70
     1
  9
$ANGBASE
 50
0.0
  9
$ANGDIR
 70
     0
  9
$PDMODE
 70
     0
  9
$PDSIZE
 40
0.0
  9
$PLINEWID
 40
9.0
  9
$COORDS
 70
     1
  9
$SPLFRAME
 70
     0
  9
$SPLINETYPE
 70
     6
  9
$SPLINESEGS
 70
     8
  9
$ATTDIA
 70
     0
  9
$ATTREQ
 70
     1
  9
$HANDLING
 70
     1
  9
$HANDSEED
  5
5D1
  9
$SURFTAB1
 70
     6
  9
$SURFTAB2
 70
     6
  9
$SURFTYPE
 70
     6
  9
$SURFU
 70
     6
  9
$SURFV
 70
     6
  9
$UCSNAME
  2

  9
$UCSORG
 10
0.0
 20
0.0
 30
0.0
  9
$UCSXDIR
 10
1.0
 20
0.0
 30
0.0
  9
$UCSYDIR
 10
0.0
 20
1.0
 30
0.0
  9
$PUCSNAME
  2

  9
$PUCSORG
 10
0.0
 20
0.0
 30
0.0
  9
$PUCSXDIR
 10
1.0
 20
0.0
 30
0.0
  9
$PUCSYDIR
 10
0.0
 20
1.0
 30
0.0
  9
$USERI1
 70
     0
  9
$USERI2
 70
     0
  9
$USERI3
 70
     0
  9
$USERI4
 70
     0
  9
$USERI5
 70
     0
  9
$USERR1
 40
0.0
  9
$USERR2
 40
0.0
  9
$USERR3
 40
0.0
  9
$USERR4
 40
0.0
  9
$USERR5
 40
0.0
  9
$WORLDVIEW
 70
     1
  9
$SHADEDGE
 70
     3
  9
$SHADEDIF
 70
    70
  9
$TILEMODE
 70
     1
  9
$MAXACTVP
 70
    64
  9
$PLIMCHECK
 70
     0
  9
$PEXTMIN
 10
1.000000000000000E+20
 20
1.000000000000000E+20
 30
1.000000000000000E+20
  9
$PEXTMAX
 10
-1.000000000000000E+20
 20
-1.000000000000000E+20
 30
-1.000000000000000E+20
  9
$PLIMMIN
 10
0.0
 20
0.0
  9
$PLIMMAX
 10
420.0
 20
297.0
  9
$UNITMODE
 70
     0
  9
$VISRETAIN
 70
     1
  9
$PLINEGEN
 70
     0
  9
$PSLTSCALE
 70
     1
  0
ENDSEC
  0
SECTION
  2
TABLES
  0
TABLE
  2
VPORT
 70
     1
  0
VPORT
  2
*ACTIVE
 70
     0
 10
0.0
 20
0.0
 11
1.0
 21
1.0
 12
543.0627432311051
 22
-579.997557742729
 13
0.0
 23
0.0
 14
10.0
 24
10.0
 15
10.0
 25
10.0
 16
0.0
 26
0.0
 36
1.0
 17
0.0
 27
0.0
 37
0.0
 40
1937.037804553559
 41
1.664827586206897
 42
50.0
 43
0.0
 44
0.0
 50
0.0
 51
0.0
 71
    16
 72
  1000
 73
     1
 74
     3
 75
     0
 76
     0
 77
     0
 78
     0
  0
ENDTAB
  0
TABLE
  2
LTYPE
 70
     1
  0
LTYPE
  2
CONTINUOUS
 70
     0
  3
Solid line
 72
    65
 73
     0
 40
0.0
  0
ENDTAB
  0
TABLE
  2
LAYER
 70
     3
  0
LAYER
  2
0
 70
     0
 62
     7
  6
CONTINUOUS
  0
LAYER
  2
INFO
 70
     0
 62
     3
  6
CONTINUOUS
  0
LAYER
  2
DEFPOINTS
 70
     0
 62
     7
  6
CONTINUOUS
  0
ENDTAB
  0
TABLE
  2
STYLE
 70
     1
  0
STYLE
  2
STANDARD
 70
     0
 40
0.0
 41
1.0
 50
0.0
 71
     0
 42
2.5
  3
txt
  4

  0
ENDTAB
  0
TABLE
  2
VIEW
 70
     0
  0
ENDTAB
  0
TABLE
  2
UCS
 70
     0
  0
ENDTAB
  0
TABLE
  2
APPID
 70
     1
  0
APPID
  2
ACAD
 70
     0
  0
ENDTAB
  0
TABLE
  2
DIMSTYLE
 70
     2
  0
DIMSTYLE
  2
STANDARD
 70
     0
  3

  4

  5

  6

  7

 40
1.0
 41
0.18
 42
0.0625
 43
0.38
 44
0.18
 45
0.0
 46
0.0
 47
0.0
 48
0.0
140
0.18
141
0.09
142
0.0
143
25.4
144
1.0
145
0.0
146
1.0
147
0.09
 71
     0
 72
     0
 73
     1
 74
     1
 75
     0
 76
     0
 77
     0
 78
     0
170
     0
171
     2
172
     0
173
     0
174
     0
175
     0
176
     0
177
     0
178
     0
  0
DIMSTYLE
  2
ISO-25
 70
     0
  3

  4

  5

  6

  7

 40
1.0
 41
2.5
 42
0.625
 43
3.75
 44
1.25
 45
0.0
 46
0.0
 47
0.0
 48
0.0
140
2.5
141
2.5
142
0.0
143
0.03937007874016
144
1.0
145
0.0
146
1.0
147
0.625
 71
     0
 72
     0
 73
     0
 74
     0
 75
     0
 76
     0
 77
     1
 78
     8
170
     0
171
     3
172
     1
173
     0
174
     0
175
     0
176
     0
177
     0
178
     0
  0
ENDTAB
  0
ENDSEC
  0
SECTION
  2
BLOCKS
  0
BLOCK
  8
0
  2
$MODEL_SPACE
 70
     0
 10
0.0
 20
0.0
 30
0.0
  3
$MODEL_SPACE
  1

  0
ENDBLK
  5
21
  8
0
  0
BLOCK
 67
     1
  8
0
  2
$PAPER_SPACE
 70
     0
 10
0.0
 20
0.0
 30
0.0
  3
$PAPER_SPACE
  1

  0
ENDBLK
  5
76
 67
     1
  8
0
  0
BLOCK
  8
0
  2
UNTERHAUSEN
 70
     0
 10
0.0
 20
0.0
 30
0.0
  3
UNTERHAUSEN
  1

  0
POLYLINE
  5
128
  8
0
 66
     1
 10
0.0
 20
0.0
 30
0.0
 70
     1
  0
VERTEX
  5
2D5
  8
0
 10
204.6755217326214
 20
142.9124457308249
 30
0.0
  0
VERTEX
  5
2D6
  8
0
 10
972.6755217326214
 20
142.9124457308249
 30
0.0
  0
VERTEX
  5
2D7
  8
0
 10
972.6755217326214
 20
492.9124457308249
 30
0.0
  0
VERTEX
  5
2D8
  8
0
 10
204.6755217326214
 20
492.9124457308249
 30
0.0
  0
SEQEND
  5
2D4
  8
0
  0
POLYLINE
  5
129
  8
0
 66
     1
 10
0.0
 20
0.0
 30
0.0
 70
     1
  0
VERTEX
  5
2DA
  8
0
 10
-563.3244782673786
 20
142.9124457308249
 30
0.0
  0
VERTEX
  5
2DB
  8
0
 10
204.6755217326214
 20
142.9124457308249
 30
0.0
  0
VERTEX
  5
2DC
  8
0
 10
204.6755217326214
 20
492.9124457308249
 30
0.0
  0
VERTEX
  5
2DD
  8
0
 10
-563.3244782673786
 20
492.9124457308249
 30
0.0
  0
SEQEND
  5
2D9
  8
0
  0
POLYLINE
  5
12A
  8
0
 66
     1
 10
0.0
 20
0.0
 30
0.0
 70
     1
  0
VERTEX
  5
2DF
  8
0
 10
-1963.324478267379
 20
-907.0875542691751
 30
0.0
  0
VERTEX
  5
2E0
  8
0
 10
-1613.324478267379
 20
-907.0875542691751
 30
0.0
  0
VERTEX
  5
2E1
  8
0
 10
-1613.324478267379
 20
-1805.087554269175
 30
0.0
  0
VERTEX
  5
2E2
  8
0
 10
-1963.324478267379
 20
-1805.087554269175
 30
0.0
  0
SEQEND
  5
2DE
  8
0
  0
LINE
  5
12B
  8
0
 10
-1367.671143542306
 20
-232.1605640983087
 30
0.0
 11
-1635.786698633951
 21
-7.184900708023633
 31
0.0
  0
LINE
  5
12C
  8
0
 10
-1635.786698633951
 20
-7.184900708023633
 30
0.0
 11
-563.3244782673786
 21
492.9124457308249
 31
0.0
  0
LINE
  5
12D
  8
0
 10
-563.3244782673786
 20
142.9124457308249
 30
0.0
 11
-1367.671143542306
 21
-232.1605640983087
 31
0.0
  0
LINE
  5
12E
  8
0
 10
-1367.671143542306
 20
-232.1605640983087
 30
0.0
 11
-1613.324478267379
 21
-907.0875542691751
 31
0.0
  0
LINE
  5
12F
  8
0
 10
-1635.786698633951
 20
-7.184900708023633
 30
0.0
 11
-1963.324478267379
 21
-907.0875542691751
 31
0.0
  0
POLYLINE
  5
130
  8
0
 66
     1
 10
0.0
 20
0.0
 30
0.0
 40
9.0
 41
9.0
  0
VERTEX
  5
2E4
  8
0
 10
128.7736836584669
 20
342.912445730825
 30
0.0
  0
VERTEX
  5
2E5
  8
0
 10
346.7950863053234
 20
317.912445730825
 30
0.0
  0
SEQEND
  5
2E3
  8
0
  0
POLYLINE
  5
131
  8
0
 66
     1
 10
0.0
 20
0.0
 30
0.0
 40
9.0
 41
9.0
  0
VERTEX
  5
2E7
  8
0
 10
272.8994973589132
 20
422.6019230809042
 30
0.0
  0
VERTEX
  5
2E8
  8
0
 10
167.2668857213895
 20
439.3324851551324
 30
0.0
  0
VERTEX
  5
2E9
  8
0
 10
64.41410307492697
 20
447.6019230809042
 30
0.0
  0
VERTEX
  5
2EA
  8
0
 10
-279.9819493422114
 20
447.6019230809042
 30
0.0
  0
SEQEND
  5
2E6
  8
0
  0
POLYLINE
  5
132
  8
0
 66
     1
 10
0.0
 20
0.0
 30
0.0
 40
9.0
 41
9.0
  0
VERTEX
  5
2EC
  8
0
 10
-317.5578831206814
 20
342.912445730825
 30
0.0
  0
VERTEX
  5
2ED
  8
0
 10
-214.8847828520716
 20
359.1742672532537
 30
0.0
  0
VERTEX
  5
2EE
  8
0
 10
-102.4799308174614
 20
367.912445730825
 30
0.0
  0
VERTEX
  5
2EF
  8
0
 10
801.1172505060505
 20
367.912445730825
 30
0.0
  0
VERTEX
  5
2F0
  8
0
 10
919.2023760553144
 20
382.4567705129593
 30
0.0
  0
SEQEND
  5
2EB
  8
0
  0
POLYLINE
  5
133
  8
0
 66
     1
 10
0.0
 20
0.0
 30
0.0
 40
9.0
 41
9.0
  0
VERTEX
  5
2F2
  8
0
 10
-467.5578831206814
 20
342.912445730825
 30
0.0
  0
VERTEX
  5
2F3
  8
0
 10
-42.34185242345262
 20
410.2600487698264
 30
0.0
  0
VERTEX
  5
2F4
  8
0
 10
113.4494037703904
 20
422.6019230809042
 30
0.0
  0
VERTEX
  5
2F5
  8
0
 10
667.4986112531648
 20
422.6019230809042
 30
0.0
  0
VERTEX
  5
2F6
  8
0
 10
887.704268641871
 20
433.2095906029662
 30
0.0
  0
SEQEND
  5
2F1
  8
0
  0
POLYLINE
  5
134
  8
0
 66
     1
 10
0.0
 20
0.0
 30
0.0
 40
9.0
 41
9.0
  0
VERTEX
  5
2F8
  8
0
 10
-290.2734494193757
 20
228.2994353200927
 30
0.0
  0
VERTEX
  5
2F9
  8
0
 10
896.2510994365651
 20
228.2994353200927
 30
0.0
  0
SEQEND
  5
2F7
  8
0
  0
POLYLINE
  5
135
  8
0
 66
     1
 10
0.0
 20
0.0
 30
0.0
 40
9.0
 41
9.0
  0
VERTEX
  5
2FB
  8
0
 10
-290.2734494193757
 20
253.2994353200927
 30
0.0
  0
VERTEX
  5
2FC
  8
0
 10
896.2510994365651
 20
253.2994353200927
 30
0.0
  0
SEQEND
  5
2FA
  8
0
  0
POLYLINE
  5
136
  8
0
 66
     1
 10
0.0
 20
0.0
 30
0.0
 40
9.0
 41
9.0
  0
VERTEX
  5
2FE
  8
0
 10
-290.2734494193757
 20
253.2994353200927
 30
0.0
  0
VERTEX
  5
2FF
  8
0
 10
-455.3337927742707
 20
240.7994353200927
 30
0.0
  0
SEQEND
  5
2FD
  8
0
  0
POLYLINE
  5
137
  8
0
 66
     1
 10
0.0
 20
0.0
 30
0.0
 40
9.0
 41
9.0
  0
VERTEX
  5
301
  8
0
 10
-290.2734494193757
 20
253.2994353200927
 30
0.0
  0
VERTEX
  5
302
  8
0
 10
-455.3337927742707
 20
240.7994353200927
 30
0.0
  0
SEQEND
  5
300
  8
0
  0
POLYLINE
  5
138
  8
0
 66
     1
 10
0.0
 20
0.0
 30
0.0
 40
9.0
 41
9.0
  0
VERTEX
  5
304
  8
0
 10
-290.2734494193757
 20
228.2994353200927
 30
0.0
  0
VERTEX
  5
305
  8
0
 10
-455.3337927742707
 20
240.7994353200927
 30
0.0
  0
SEQEND
  5
303
  8
0
  0
POLYLINE
  5
139
  8
0
 66
     1
 10
0.0
 20
0.0
 30
0.0
 40
9.0
 41
9.0
  0
VERTEX
  5
307
  8
0
 10
-455.3337927742707
 20
240.7994353200927
 30
0.0
  0
VERTEX
  5
308
  8
0
 10
-562.3244782673786
 20
240.7994353200927
 30
0.0
  0
SEQEND
  5
306
  8
0
  0
POLYLINE
  5
13A
  8
0
 66
     1
 10
0.0
 20
0.0
 30
0.0
 40
9.0
 41
9.0
  0
VERTEX
  5
30A
  8
0
 10
-562.3244782673786
 20
317.912445730825
 30
0.0
  0
VERTEX
  5
30B
  8
0
 10
972.6755217326214
 20
317.912445730825
 30
0.0
  0
SEQEND
  5
309
  8
0
  0
POLYLINE
  5
13B
  8
0
 66
     1
 10
0.0
 20
0.0
 30
0.0
 40
9.0
 41
9.0
  0
VERTEX
  5
30D
  8
0
 10
-1788.324478267379
 20
-907.0875542691751
 30
0.0
  0
VERTEX
  5
30E
  8
0
 10
-1788.324478267379
 20
-1805.087554269175
 30
0.0
  0
SEQEND
  5
30C
  8
0
  0
POLYLINE
  5
13C
  8
0
 66
     1
 10
0.0
 20
0.0
 30
0.0
 40
9.0
 41
9.0
  0
VERTEX
  5
310
  8
0
 10
-1813.324478267379
 20
-907.0875542691751
 30
0.0
  0
VERTEX
  5
311
  8
0
 10
-1813.324478267379
 20
-1786.361635267212
 30
0.0
  0
SEQEND
  5
30F
  8
0
  0
POLYLINE
  5
13D
  8
0
 66
     1
 10
0.0
 20
0.0
 30
0.0
 40
9.0
 41
9.0
  0
VERTEX
  5
313
  8
0
 10
-1763.324478267379
 20
-907.0875542691751
 30
0.0
  0
VERTEX
  5
314
  8
0
 10
-1763.324478267379
 20
-1786.361635267212
 30
0.0
  0
SEQEND
  5
312
  8
0
  0
POLYLINE
  5
13E
  8
0
 66
     1
 10
0.0
 20
0.0
 30
0.0
 40
9.0
 41
9.0
  0
VERTEX
  5
316
  8
0
 10
-1820.634632058124
 20
-1786.361635267212
 30
0.0
  0
VERTEX
  5
317
  8
0
 10
-1806.014324476633
 20
-1786.361635267212
 30
0.0
  0
SEQEND
  5
315
  8
0
  0
POLYLINE
  5
13F
  8
0
 66
     1
 10
0.0
 20
0.0
 30
0.0
 40
9.0
 41
9.0
  0
VERTEX
  5
319
  8
0
 10
-1770.634632058124
 20
-1786.361635267212
 30
0.0
  0
VERTEX
  5
31A
  8
0
 10
-1756.014324476633
 20
-1786.361635267212
 30
0.0
  0
SEQEND
  5
318
  8
0
  0
POLYLINE
  5
140
  8
0
 66
     1
 10
0.0
 20
0.0
 30
0.0
 40
9.0
 41
9.0
  0
VERTEX
  5
31C
  8
0
 10
-867.5651017932363
 20
258.7238217750617
 30
0.0
  0
VERTEX
  5
31D
  8
0
 10
-1013.690171760129
 20
184.2693798177758
 30
0.0
  0
SEQEND
  5
31B
  8
0
  0
POLYLINE
  5
141
  8
0
 66
     1
 10
0.0
 20
0.0
 30
0.0
 40
9.0
 41
9.0
  0
VERTEX
  5
31F
  8
0
 10
-950.5258079877503
 20
216.4532306609265
 30
0.0
  0
VERTEX
  5
320
  8
0
 10
-1008.015290513384
 20
173.1317982654212
 30
0.0
  0
SEQEND
  5
31E
  8
0
  0
POLYLINE
  5
142
  8
0
 66
     1
 10
0.0
 20
0.0
 30
0.0
 40
9.0
 41
9.0
  0
VERTEX
  5
322
  8
0
 10
-709.4636061464958
 20
304.0688002651182
 30
0.0
  0
VERTEX
  5
323
  8
0
 10
-870.0881395150454
 20
270.9665453549816
 30
0.0
  0
SEQEND
  5
321
  8
0
  0
POLYLINE
  5
143
  8
0
 66
     1
 10
0.0
 20
0.0
 30
0.0
 40
9.0
 41
9.0
  0
VERTEX
  5
325
  8
0
 10
-800.6562038536405
 20
285.2754033168878
 30
0.0
  0
VERTEX
  5
326
  8
0
 10
-867.5651017932363
 20
258.7238217750617
 30
0.0
  0
SEQEND
  5
324
  8
0
  0
POLYLINE
  5
144
  8
0
 66
     1
 10
0.0
 20
0.0
 30
0.0
 40
9.0
 41
9.0
  0
VERTEX
  5
328
  8
0
 10
-1788.324478267379
 20
-1616.050096779111
 30
0.0
  0
VERTEX
  5
329
  8
0
 10
-1813.020576678395
 20
-1460.125068029996
 30
0.0
  0
SEQEND
  5
327
  8
0
  0
POLYLINE
  5
145
  8
0
 66
     1
 10
0.0
 20
0.0
 30
0.0
 40
9.0
 41
9.0
  0
VERTEX
  5
32B
  8
0
 10
-1788.324478267379
 20
-1416.050096779111
 30
0.0
  0
VERTEX
  5
32C
  8
0
 10
-1763.324478267379
 20
-1257.087554269192
 30
0.0
  0
SEQEND
  5
32A
  8
0
  0
POLYLINE
  5
146
  8
0
 66
     1
 10
0.0
 20
0.0
 30
0.0
 40
9.0
 41
9.0
  0
VERTEX
  5
32E
  8
0
 10
-1813.324478267379
 20
-907.0875542691751
 30
0.0
  0
VERTEX
  5
32F
  8
0
 10
-1813.324478267379
 20
-743.0875542691751
 30
0.0
  0
SEQEND
  5
32D
  8
0
  0
POLYLINE
  5
147
  8
0
 66
     1
 10
0.0
 20
0.0
 30
0.0
 40
9.0
 41
9.0
  0
VERTEX
  5
331
  8
0
 10
-1813.324478267379
 20
-813.9785770143965
 30
0.0
  0
VERTEX
  5
332
  8
0
 10
-1800.824478267379
 20
-743.0875542691751
 30
0.0
  0
SEQEND
  5
330
  8
0
  0
POLYLINE
  5
148
  8
0
 66
     1
 10
0.0
 20
0.0
 30
0.0
 40
9.0
 41
9.0
  0
VERTEX
  5
334
  8
0
 10
-1077.915461467751
 20
191.3582751405785
 30
0.0
  0
VERTEX
  5
335
  8
0
 10
-931.7903915008589
 20
265.8127170978642
 30
0.0
  0
SEQEND
  5
333
  8
0
  0
POLYLINE
  5
149
  8
0
 66
     1
 10
0.0
 20
0.0
 30
0.0
 40
9.0
 41
9.0
  0
VERTEX
  5
337
  8
0
 10
-994.9547552732369
 20
233.6288662547136
 30
0.0
  0
VERTEX
  5
338
  8
0
 10
-926.1155102541146
 20
254.6751355455097
 30
0.0
  0
SEQEND
  5
336
  8
0
  0
POLYLINE
  5
14A
  8
0
 66
     1
 10
0.0
 20
0.0
 30
0.0
 40
9.0
 41
9.0
  0
VERTEX
  5
33A
  8
0
 10
-1138.99151416114
 20
74.43413446848523
 30
0.0
  0
VERTEX
  5
33B
  8
0
 10
-1008.015290513384
 20
173.1317982654212
 30
0.0
  0
SEQEND
  5
339
  8
0
  0
POLYLINE
  5
14B
  8
0
 66
     1
 10
0.0
 20
0.0
 30
0.0
 40
9.0
 41
9.0
  0
VERTEX
  5
33D
  8
0
 10
-1064.631378621288
 20
130.4685157707334
 30
0.0
  0
VERTEX
  5
33E
  8
0
 10
-1000.492602723983
 20
163.1488543898301
 30
0.0
  0
SEQEND
  5
33C
  8
0
  0
POLYLINE
  5
14C
  8
0
 66
     1
 10
0.0
 20
0.0
 30
0.0
  0
VERTEX
  5
33F
  8
0
 10
-926.1155102541146
 20
254.6751355455097
 30
0.0
  0
VERTEX
  5
340
  8
0
 10
-911.3752773845474
 20
259.1265218014582
 30
0.0
  0
VERTEX
  5
341
  8
0
 10
-896.5820942158329
 20
263.478890270963
 30
0.0
  0
VERTEX
  5
342
  8
0
 10
-881.7382279611368
 20
267.7242038735403
 30
0.0
  0
VERTEX
  5
343
  8
0
 10
-866.8459458336247
 20
271.8544255287065
 30
0.0
  0
VERTEX
  5
344
  8
0
 10
-851.9075150464627
 20
275.8615181559781
 30
0.0
  0
VERTEX
  5
345
  8
0
 10
-836.9252028128163
 20
279.737444674871
 30
0.0
  0
VERTEX
  5
346
  8
0
 10
-821.9012763458516
 20
283.4741680049019
 30
0.0
  0
VERTEX
  5
347
  8
0
 10
-806.8380028587339
 20
287.0636510655869
 30
0.0
  0
VERTEX
  5
348
  8
0
 10
-791.7376495646297
 20
290.4978567764424
 30
0.0
  0
VERTEX
  5
349
  8
0
 10
-776.6024836767042
 20
293.7687480569846
 30
0.0
  0
VERTEX
  5
34A
  8
0
 10
-761.4347724081234
 20
296.86828782673
 30
0.0
  0
VERTEX
  5
34B
  8
0
 10
-746.2367829720532
 20
299.7884390051948
 30
0.0
  0
VERTEX
  5
34C
  8
0
 10
-731.0107825816592
 20
302.5211645118953
 30
0.0
  0
VERTEX
  5
34D
  8
0
 10
-715.7590384501075
 20
305.0584272663478
 30
0.0
  0
VERTEX
  5
34E
  8
0
 10
-700.4838177905634
 20
307.3921901880688
 30
0.0
  0
VERTEX
  5
34F
  8
0
 10
-685.1873878161931
 20
309.5144161965743
 30
0.0
  0
VERTEX
  5
350
  8
0
 10
-669.8720157401623
 20
311.4170682113809
 30
0.0
  0
VERTEX
  5
351
  8
0
 10
-654.5399687756368
 20
313.0921091520048
 30
0.0
  0
VERTEX
  5
352
  8
0
 10
-639.1935141357823
 20
314.5315019379622
 30
0.0
  0
VERTEX
  5
353
  8
0
 10
-623.8349190337647
 20
315.7272094887696
 30
0.0
  0
VERTEX
  5
354
  8
0
 10
-608.4664506827497
 20
316.6711947239434
 30
0.0
  0
VERTEX
  5
355
  8
0
 10
-593.0903762959031
 20
317.3554205629995
 30
0.0
  0
VERTEX
  5
356
  8
0
 10
-577.7089630863909
 20
317.7718499254547
 30
0.0
  0
VERTEX
  5
357
  8
0
 10
-562.3244783673786
 20
317.912445730825
 30
0.0
  0
SEQEND
  5
358
  8
0
  0
POLYLINE
  5
14D
  8
0
 66
     1
 10
0.0
 20
0.0
 30
0.0
 40
9.0
 41
9.0
  0
VERTEX
  5
35A
  8
0
 10
-926.1155102541146
 20
254.6751355455097
 30
0.0
  0
VERTEX
  5
35B
  8
0
 10
-870.0881395150454
 20
270.9665453549816
 30
0.0
  0
SEQEND
  5
359
  8
0
  0
POLYLINE
  5
14E
  8
0
 66
     1
 10
0.0
 20
0.0
 30
0.0
 40
9.0
 41
9.0
  0
VERTEX
  5
35D
  8
0
 10
-709.4636061464958
 20
304.0688002651182
 30
0.0
 42
-0.0543888164096234
  0
VERTEX
  5
35E
  8
0
 10
-562.324478600573
 20
317.9120375677635
 30
0.0
 42
-18.38613277532321
  0
SEQEND
  5
35C
  8
0
  0
POLYLINE
  5
14F
  8
0
 66
     1
 10
0.0
 20
0.0
 30
0.0
  0
VERTEX
  5
35F
  8
0
 10
-1000.492602723983
 20
163.1488543898301
 30
0.0
  0
VERTEX
  5
360
  8
0
 10
-983.8416982678157
 20
171.2728469209789
 30
0.0
  0
VERTEX
  5
361
  8
0
 10
-966.9402193349825
 20
178.8230362526162
 30
0.0
  0
VERTEX
  5
362
  8
0
 10
-949.8032904996203
 20
185.8197012598644
 30
0.0
  0
VERTEX
  5
363
  8
0
 10
-932.4460363358646
 20
192.283120817846
 30
0.0
  0
VERTEX
  5
364
  8
0
 10
-914.8835814178515
 20
198.2335738016835
 30
0.0
  0
VERTEX
  5
365
  8
0
 10
-897.1310503197166
 20
203.6913390864993
 30
0.0
  0
VERTEX
  5
366
  8
0
 10
-879.2035676155959
 20
208.6766955474159
 30
0.0
  0
VERTEX
  5
367
  8
0
 10
-861.1162578796253
 20
213.2099220595559
 30
0.0
  0
VERTEX
  5
368
  8
0
 10
-842.8842456859408
 20
217.3112974980415
 30
0.0
  0
VERTEX
  5
369
  8
0
 10
-824.522655608678
 20
221.0011007379953
 30
0.0
  0
VERTEX
  5
36A
  8
0
 10
-806.0466122219729
 20
224.2996106545399
 30
0.0
  0
VERTEX
  5
36B
  8
0
 10
-787.4712400999614
 20
227.2271061227975
 30
0.0
  0
VERTEX
  5
36C
  8
0
 10
-768.8116638167793
 20
229.8038660178908
 30
0.0
  0
VERTEX
  5
36D
  8
0
 10
-750.0830079465625
 20
232.0501692149422
 30
0.0
  0
VERTEX
  5
36E
  8
0
 10
-731.3003970634468
 20
233.9862945890741
 30
0.0
  0
VERTEX
  5
36F
  8
0
 10
-712.4789557415683
 20
235.632521015409
 30
0.0
  0
VERTEX
  5
370
  8
0
 10
-693.6338085550626
 20
237.0091273690694
 30
0.0
  0
VERTEX
  5
371
  8
0
 10
-674.7800800780658
 20
238.1363925251777
 30
0.0
  0
VERTEX
  5
372
  8
0
 10
-655.9328948847136
 20
239.0345953588565
 30
0.0
  0
VERTEX
  5
373
  8
0
 10
-637.107377549142
 20
239.7240147452281
 30
0.0
  0
VERTEX
  5
374
  8
0
 10
-618.3186526454867
 20
240.2249295594151
 30
0.0
  0
VERTEX
  5
375
  8
0
 10
-599.5818447478838
 20
240.5576186765399
 30
0.0
  0
VERTEX
  5
376
  8
0
 10
-580.9120784304691
 20
240.7423609717249
 30
0.0
  0
VERTEX
  5
377
  8
0
 10
-562.3244783673786
 20
240.7994353200927
 30
0.0
  0
SEQEND
  5
378
  8
0
  0
POLYLINE
  5
150
  8
0
 66
     1
 10
0.0
 20
0.0
 30
0.0
 40
9.0
 41
9.0
  0
VERTEX
  5
37A
  8
0
 10
-1000.492602723983
 20
163.1488543898301
 30
0.0
 42
-0.0646482797382756
  0
VERTEX
  5
37B
  8
0
 10
-846.013553958102
 20
216.6392549344739
 30
0.0
 42
-0.0126511942981347
  0
VERTEX
  5
37C
  8
0
 10
-787.4712400999613
 20
227.2271061227976
 30
0.0
 42
-0.0166701014223538
  0
VERTEX
  5
37D
  8
0
 10
-732.4917724120521
 20
233.8724372783655
 30
0.0
 42
-0.0122187692711184
  0
VERTEX
  5
37E
  8
0
 10
-641.0607377258127
 20
239.595466050838
 30
0.0
 42
-0.0113935365444897
  0
VERTEX
  5
37F
  8
0
 10
-562.3244782673786
 20
240.7994353200927
 30
0.0
 42
-10.9049456152857
  0
SEQEND
  5
379
  8
0
  0
POLYLINE
  5
151
  8
0
 66
     1
 10
0.0
 20
0.0
 30
0.0
  0
VERTEX
  5
380
  8
0
 10
-1763.324478267379
 20
-907.0875542691751
 30
0.0
  0
VERTEX
  5
381
  8
0
 10
-1761.70875130828
 20
-858.7679582310291
 30
0.0
  0
VERTEX
  5
382
  8
0
 10
-1756.95406009413
 20
-810.7764507873067
 30
0.0
  0
VERTEX
  5
383
  8
0
 10
-1749.199139119645
 20
-763.1563106752197
 30
0.0
  0
VERTEX
  5
384
  8
0
 10
-1738.58272287954
 20
-715.9508166319804
 30
0.0
  0
VERTEX
  5
385
  8
0
 10
-1725.243545868533
 20
-669.2032473948002
 30
0.0
  0
VERTEX
  5
386
  8
0
 10
-1709.320342581341
 20
-622.9568817008912
 30
0.0
  0
VERTEX
  5
387
  8
0
 10
-1690.95184751268
 20
-577.2549982874657
 30
0.0
  0
VERTEX
  5
388
  8
0
 10
-1670.276795157267
 20
-532.1408758917353
 30
0.0
  0
VERTEX
  5
389
  8
0
 10
-1647.433920009819
 20
-487.6577932509118
 30
0.0
  0
VERTEX
  5
38A
  8
0
 10
-1622.561956565051
 20
-443.8490291022074
 30
0.0
  0
VERTEX
  5
38B
  8
0
 10
-1595.799639317681
 20
-400.7578621828338
 30
0.0
  0
VERTEX
  5
38C
  8
0
 10
-1567.285702762426
 20
-358.4275712300031
 30
0.0
  0
VERTEX
  5
38D
  8
0
 10
-1537.158881394001
 20
-316.9014349809271
 30
0.0
  0
VERTEX
  5
38E
  8
0
 10
-1505.557909707125
 20
-276.2227321728178
 30
0.0
  0
VERTEX
  5
38F
  8
0
 10
-1472.621522196512
 20
-236.4347415428871
 30
0.0
  0
VERTEX
  5
390
  8
0
 10
-1438.48845335688
 20
-197.5807418283469
 30
0.0
  0
VERTEX
  5
391
  8
0
 10
-1403.297437682947
 20
-159.7040117664091
 30
0.0
  0
VERTEX
  5
392
  8
0
 10
-1367.187209669427
 20
-122.8478300942857
 30
0.0
  0
VERTEX
  5
393
  8
0
 10
-1330.296503811038
 20
-87.05547554918863
 30
0.0
  0
VERTEX
  5
394
  8
0
 10
-1292.764054602497
 20
-52.37022686832971
 30
0.0
  0
VERTEX
  5
395
  8
0
 10
-1254.72859653852
 20
-18.83536278892093
 30
0.0
  0
VERTEX
  5
396
  8
0
 10
-1216.328864113823
 20
13.50583795182573
 30
0.0
  0
VERTEX
  5
397
  8
0
 10
-1177.703591823125
 20
44.61009661669842
 30
0.0
  0
VERTEX
  5
398
  8
0
 10
-1138.991514241003
 20
74.43413440830369
 30
0.0
  0
SEQEND
  5
399
  8
0
  0
POLYLINE
  5
152
  8
0
 66
     1
 10
0.0
 20
0.0
 30
0.0
 40
9.0
 41
9.0
  0
VERTEX
  5
39B
  8
0
 10
-511.6100426556838
 20
341.85634619004
 30
0.0
  0
VERTEX
  5
39C
  8
0
 10
802.2820672963325
 20
342.912445730825
 30
0.0
  0
VERTEX
  5
39D
  8
0
 10
946.4037841424473
 20
355.5099132759913
 30
0.0
  0
SEQEND
  5
39A
  8
0
  0
POLYLINE
  5
153
  8
0
 66
     1
 10
0.0
 20
0.0
 30
0.0
  0
VERTEX
  5
39E
  8
0
 10
-931.7903915008589
 20
265.8127170978642
 30
0.0
  0
VERTEX
  5
39F
  8
0
 10
-915.814005306711
 20
273.6154765548313
 30
0.0
  0
VERTEX
  5
3A0
  8
0
 10
-899.5997941010751
 20
280.8812164696845
 30
0.0
  0
VERTEX
  5
3A1
  8
0
 10
-883.1620328953073
 20
287.6282149035644
 30
0.0
  0
VERTEX
  5
3A2
  8
0
 10
-866.5149967007641
 20
293.8747499176116
 30
0.0
  0
VERTEX
  5
3A3
  8
0
 10
-849.6729605288015
 20
299.6390995729665
 30
0.0
  0
VERTEX
  5
3A4
  8
0
 10
-832.6501993907759
 20
304.9395419307695
 30
0.0
  0
VERTEX
  5
3A5
  8
0
 10
-815.4609882980437
 20
309.7943550521613
 30
0.0
  0
VERTEX
  5
3A6
  8
0
 10
-798.1196022619608
 20
314.2218169982824
 30
0.0
  0
VERTEX
  5
3A7
  8
0
 10
-780.640316293884
 20
318.2402058302731
 30
0.0
  0
VERTEX
  5
3A8
  8
0
 10
-763.037405405169
 20
321.867799609274
 30
0.0
  0
VERTEX
  5
3A9
  8
0
 10
-745.3251446071724
 20
325.1228763964256
 30
0.0
  0
VERTEX
  5
3AA
  8
0
 10
-727.5178089112504
 20
328.0237142528686
 30
0.0
  0
VERTEX
  5
3AB
  8
0
 10
-709.6296733287593
 20
330.5885912397431
 30
0.0
  0
VERTEX
  5
3AC
  8
0
 10
-691.6750128710552
 20
332.8357854181899
 30
0.0
  0
VERTEX
  5
3AD
  8
0
 10
-673.6681025494945
 20
334.7835748493494
 30
0.0
  0
VERTEX
  5
3AE
  8
0
 10
-655.6232173754335
 20
336.4502375943621
 30
0.0
  0
VERTEX
  5
3AF
  8
0
 10
-637.5546323602283
 20
337.8540517143686
 30
0.0
  0
VERTEX
  5
3B0
  8
0
 10
-619.4766225152353
 20
339.0132952705093
 30
0.0
  0
VERTEX
  5
3B1
  8
0
 10
-601.4034628518108
 20
339.9462463239246
 30
0.0
  0
VERTEX
  5
3B2
  8
0
 10
-583.3494283813109
 20
340.6711829357553
 30
0.0
  0
VERTEX
  5
3B3
  8
0
 10
-565.328794115092
 20
341.2063831671416
 30
0.0
  0
VERTEX
  5
3B4
  8
0
 10
-547.3558350645104
 20
341.5701250792242
 30
0.0
  0
VERTEX
  5
3B5
  8
0
 10
-529.4448262409222
 20
341.7806867331435
 30
0.0
  0
VERTEX
  5
3B6
  8
0
 10
-511.6100427556838
 20
341.8563461899597
 30
0.0
  0
SEQEND
  5
3B7
  8
0
  0
POLYLINE
  5
154
  8
0
 66
     1
 10
0.0
 20
0.0
 30
0.0
  0
VERTEX
  5
3B8
  8
0
 10
-1013.690171760129
 20
184.2693798177758
 30
0.0
  0
VERTEX
  5
3B9
  8
0
 10
-1051.433515132194
 20
164.1178626715519
 30
0.0
  0
VERTEX
  5
3BA
  8
0
 10
-1088.289242830879
 20
142.6234567864726
 30
0.0
  0
VERTEX
  5
3BB
  8
0
 10
-1124.293472051342
 20
119.8360017091728
 30
0.0
  0
VERTEX
  5
3BC
  8
0
 10
-1159.482319988738
 20
95.80533698628733
 30
0.0
  0
VERTEX
  5
3BD
  8
0
 10
-1193.891903838224
 20
70.58130216445082
 30
0.0
  0
VERTEX
  5
3BE
  8
0
 10
-1227.558340794958
 20
44.21373679029808
 30
0.0
  0
VERTEX
  5
3BF
  8
0
 10
-1260.517748054095
 20
16.75248041046387
 30
0.0
  0
VERTEX
  5
3C0
  8
0
 10
-1292.806242810791
 20
-11.75262742841704
 30
0.0
  0
VERTEX
  5
3C1
  8
0
 10
-1324.459942260205
 20
-41.25174717970989
 30
0.0
  0
VERTEX
  5
3C2
  8
0
 10
-1355.514963597491
 20
-71.69503929677987
 30
0.0
  0
VERTEX
  5
3C3
  8
0
 10
-1386.007424017807
 20
-103.0326642329923
 30
0.0
  0
VERTEX
  5
3C4
  8
0
 10
-1415.97344071631
 20
-135.2147824417123
 30
0.0
  0
VERTEX
  5
3C5
  8
0
 10
-1445.449130608723
 20
-168.191554421199
 30
0.0
  0
VERTEX
  5
3C6
  8
0
 10
-1474.44390382159
 20
-201.917431432578
 30
0.0
  0
VERTEX
  5
3C7
  8
0
 10
-1502.867270499659
 20
-236.3629148555135
 30
0.0
  0
VERTEX
  5
3C8
  8
0
 10
-1530.605386653318
 20
-271.5022581887215
 30
0.0
  0
VERTEX
  5
3C9
  8
0
 10
-1557.544408292952
 20
-307.3097149309176
 30
0.0
  0
VERTEX
  5
3CA
  8
0
 10
-1583.570491428949
 20
-343.7595385808177
 30
0.0
  0
VERTEX
  5
3CB
  8
0
 10
-1608.569792071694
 20
-380.8259826371375
 30
0.0
  0
VERTEX
  5
3CC
  8
0
 10
-1632.428466231574
 20
-418.4833005985929
 30
0.0
  0
VERTEX
  5
3CD
  8
0
 10
-1655.032669918977
 20
-456.7057459638995
 30
0.0
  0
VERTEX
  5
3CE
  8
0
 10
-1676.268559144287
 20
-495.4675722317733
 30
0.0
  0
VERTEX
  5
3CF
  8
0
 10
-1696.022289917892
 20
-534.7430329009299
 30
0.0
  0
VERTEX
  5
3D0
  8
0
 10
-1714.180018250179
 20
-574.5063814700854
 30
0.0
  0
VERTEX
  5
3D1
  8
0
 10
-1730.627900151533
 20
-614.7318714379552
 30
0.0
  0
VERTEX
  5
3D2
  8
0
 10
-1745.252091632342
 20
-655.3937563032552
 30
0.0
  0
VERTEX
  5
3D3
  8
0
 10
-1757.938748702991
 20
-696.4662895647014
 30
0.0
  0
VERTEX
  5
3D4
  8
0
 10
-1768.574027373868
 20
-737.9237247210092
 30
0.0
  0
VERTEX
  5
3D5
  8
0
 10
-1777.044083655359
 20
-779.7403152708947
 30
0.0
  0
VERTEX
  5
3D6
  8
0
 10
-1783.23507355785
 20
-821.8903147130735
 30
0.0
  0
VERTEX
  5
3D7
  8
0
 10
-1787.033153091728
 20
-864.3479765462616
 30
0.0
  0
VERTEX
  5
3D8
  8
0
 10
-1788.324478267379
 20
-907.0875541691752
 30
0.0
  0
SEQEND
  5
3D9
  8
0
  0
POLYLINE
  5
155
  8
0
 66
     1
 10
0.0
 20
0.0
 30
0.0
  0
VERTEX
  5
3DA
  8
0
 10
-1077.915461467751
 20
191.3582751405785
 30
0.0
  0
VERTEX
  5
3DB
  8
0
 10
-1110.702135353955
 20
173.5873221646802
 30
0.0
  0
VERTEX
  5
3DC
  8
0
 10
-1142.446686321865
 20
154.3099813021487
 30
0.0
  0
VERTEX
  5
3DD
  8
0
 10
-1173.222909250095
 20
133.6285128115883
 30
0.0
  0
VERTEX
  5
3DE
  8
0
 10
-1203.104599017259
 20
111.645176951603
 30
0.0
  0
VERTEX
  5
3DF
  8
0
 10
-1232.165550501971
 20
88.46223398079711
 30
0.0
  0
VERTEX
  5
3E0
  8
0
 10
-1260.479558582847
 20
64.18194415777478
 30
0.0
  0
VERTEX
  5
3E1
  8
0
 10
-1288.120418138499
 20
38.90656774114022
 30
0.0
  0
VERTEX
  5
3E2
  8
0
 10
-1315.161924047542
 20
12.73836498949754
 30
0.0
  0
VERTEX
  5
3E3
  8
0
 10
-1341.677871188591
 20
-14.22040383854902
 30
0.0
  0
VERTEX
  5
3E4
  8
0
 10
-1367.74205444026
 20
-41.86747848439533
 30
0.0
  0
VERTEX
  5
3E5
  8
0
 10
-1393.428268681163
 20
-70.10059868943714
 30
0.0
  0
VERTEX
  5
3E6
  8
0
 10
-1418.810308789914
 20
-98.81750419507034
 30
0.0
  0
VERTEX
  5
3E7
  8
0
 10
-1443.961969645128
 20
-127.9159347426908
 30
0.0
  0
VERTEX
  5
3E8
  8
0
 10
-1468.956810490137
 20
-157.2937991050665
 30
0.0
  0
VERTEX
  5
3E9
  8
0
 10
-1493.818961221502
 20
-186.8844638619293
 30
0.0
  0
VERTEX
  5
3EA
  8
0
 10
-1518.462525211024
 20
-216.7002223749829
 30
0.0
  0
VERTEX
  5
3EB
  8
0
 10
-1542.786758250511
 20
-246.7640188168294
 30
0.0
  0
VERTEX
  5
3EC
  8
0
 10
-1566.690916131768
 20
-277.0987973600711
 30
0.0
  0
VERTEX
  5
3ED
  8
0
 10
-1590.074254646604
 20
-307.7275021773101
 30
0.0
  0
VERTEX
  5
3EE
  8
0
 10
-1612.836029586826
 20
-338.6730774411486
 30
0.0
  0
VERTEX
  5
3EF
  8
0
 10
-1634.875496744241
 20
-369.958467324189
 30
0.0
  0
VERTEX
  5
3F0
  8
0
 10
-1656.091911910655
 20
-401.6066159990332
 30
0.0
  0
VERTEX
  5
3F1
  8
0
 10
-1676.384530877877
 20
-433.6404676382836
 30
0.0
  0
VERTEX
  5
3F2
  8
0
 10
-1695.652609437713
 20
-466.0829664145423
 30
0.0
  0
VERTEX
  5
3F3
  8
0
 10
-1713.795403381971
 20
-498.9570565004115
 30
0.0
  0
VERTEX
  5
3F4
  8
0
 10
-1730.712168502457
 20
-532.2856820684933
 30
0.0
  0
VERTEX
  5
3F5
  8
0
 10
-1746.30216059098
 20
-566.0917872913901
 30
0.0
  0
VERTEX
  5
3F6
  8
0
 10
-1760.464635439345
 20
-600.398316341704
 30
0.0
  0
VERTEX
  5
3F7
  8
0
 10
-1773.09884883936
 20
-635.2282133920371
 30
0.0
  0
VERTEX
  5
3F8
  8
0
 10
-1784.104056582833
 20
-670.6044226149918
 30
0.0
  0
VERTEX
  5
3F9
  8
0
 10
-1793.37951446157
 20
-706.5498881831701
 30
0.0
  0
VERTEX
  5
3FA
  8
0
 10
-1800.824478250014
 20
-743.0875541706943
 30
0.0
  0
SEQEND
  5
3FB
  8
0
  0
POLYLINE
  5
156
  8
0
 66
     1
 10
0.0
 20
0.0
 30
0.0
 40
9.0
 41
9.0
  0
VERTEX
  5
3FD
  8
0
 10
-1529.403276669304
 20
-123.6034141143309
 30
0.0
  0
VERTEX
  5
3FE
  8
0
 10
-1518.203471289813
 20
-133.0011666775189
 30
0.0
  0
SEQEND
  5
3FC
  8
0
  0
POLYLINE
  5
157
  8
0
 66
     1
 10
0.0
 20
0.0
 30
0.0
 40
9.0
 41
9.0
  0
VERTEX
  5
400
  8
0
 10
918.3459205105885
 20
389.7165799005572
 30
0.0
  0
VERTEX
  5
401
  8
0
 10
920.0588316000403
 20
375.1969611253614
 30
0.0
  0
SEQEND
  5
3FF
  8
0
  0
POLYLINE
  5
158
  8
0
 66
     1
 10
0.0
 20
0.0
 30
0.0
 40
9.0
 41
9.0
  0
VERTEX
  5
403
  8
0
 10
896.2510994365651
 20
260.6095891108379
 30
0.0
  0
VERTEX
  5
404
  8
0
 10
896.2510994365651
 20
245.9892815293475
 30
0.0
  0
SEQEND
  5
402
  8
0
  0
POLYLINE
  5
159
  8
0
 66
     1
 10
0.0
 20
0.0
 30
0.0
 40
9.0
 41
9.0
  0
VERTEX
  5
406
  8
0
 10
896.2510994365651
 20
235.6095891108379
 30
0.0
  0
VERTEX
  5
407
  8
0
 10
896.2510994365651
 20
220.9892815293475
 30
0.0
  0
SEQEND
  5
405
  8
0
  0
POLYLINE
  5
15A
  8
0
 66
     1
 10
0.0
 20
0.0
 30
0.0
 40
9.0
 41
9.0
  0
VERTEX
  5
409
  8
0
 10
-279.9819493422114
 20
454.9120768716493
 30
0.0
  0
VERTEX
  5
40A
  8
0
 10
-279.9819493422114
 20
440.2917692901589
 30
0.0
  0
SEQEND
  5
408
  8
0
  0
POLYLINE
  5
15B
  8
0
 66
     1
 10
0.0
 20
0.0
 30
0.0
 40
9.0
 41
9.0
  0
VERTEX
  5
40C
  8
0
 10
945.5473285977214
 20
362.7697226635892
 30
0.0
  0
VERTEX
  5
40D
  8
0
 10
947.2602396871732
 20
348.2501038883934
 30
0.0
  0
SEQEND
  5
40B
  8
0
  0
POLYLINE
  5
15C
  8
0
 66
     1
 10
0.0
 20
0.0
 30
0.0
 40
9.0
 41
9.0
  0
VERTEX
  5
40F
  8
0
 10
886.847813097145
 20
440.4693999905641
 30
0.0
  0
VERTEX
  5
410
  8
0
 10
888.5607241865969
 20
425.9497812153683
 30
0.0
  0
SEQEND
  5
40E
  8
0
  0
POLYLINE
  5
15D
  8
0
 66
     1
 10
0.0
 20
0.0
 30
0.0
 40
9.0
 41
9.0
  0
VERTEX
  5
412
  8
0
 10
-931.7903915008589
 20
265.8127170978642
 30
0.0
 42
-0.0869817412162928
  0
VERTEX
  5
413
  8
0
 10
-698.3390881726034
 20
332.038472068226
 30
0.0
 42
-0.0088906497747728
  0
VERTEX
  5
414
  8
0
 10
-611.3663570804037
 20
339.4587754737386
 30
0.0
 42
-0.0216538800605134
  0
VERTEX
  5
415
  8
0
 10
-511.6100426556838
 20
341.85634619004
 30
0.0
 42
-10.05204687655271
  0
SEQEND
  5
411
  8
0
  0
POLYLINE
  5
15E
  8
0
 66
     1
 10
0.0
 20
0.0
 30
0.0
 40
9.0
 41
9.0
  0
VERTEX
  5
417
  8
0
 10
-1813.324478267379
 20
-743.0875542691751
 30
0.0
 42
-0.1040119662352156
  0
VERTEX
  5
418
  8
0
 10
-1749.592483313797
 20
-445.9478747873301
 30
0.0
 42
-0.0492241819522057
  0
VERTEX
  5
419
  8
0
 10
-1673.577259628288
 20
-312.2346392803174
 30
0.0
 42
-0.0197647402450031
  0
VERTEX
  5
41A
  8
0
 10
-1596.092931957185
 20
-211.3232765127304
 30
0.0
 42
-0.0061033221470223
  0
VERTEX
  5
41B
  8
0
 10
-1564.932557892284
 20
-174.8167859771172
 30
0.0
 42
-0.0026338977173937
  0
VERTEX
  5
41C
  8
0
 10
-1523.803373979558
 20
-128.3022903959249
 30
0.0
 42
-6.86796744554194
  0
SEQEND
  5
416
  8
0
  0
POLYLINE
  5
15F
  8
0
 66
     1
 10
0.0
 20
0.0
 30
0.0
 40
9.0
 41
9.0
  0
VERTEX
  5
41E
  8
0
 10
-1800.824478267379
 20
-743.0875542691751
 30
0.0
 42
-0.1047195107340893
  0
VERTEX
  5
41F
  8
0
 10
-1652.837826785222
 20
-396.6407689299701
 30
0.0
 42
-0.0030297026242492
  0
VERTEX
  5
420
  8
0
 10
-1581.386247201318
 20
-296.2233514572135
 30
0.0
 42
-0.0284028945298825
  0
VERTEX
  5
421
  8
0
 10
-1463.947569818892
 20
-151.3777175177761
 30
0.0
 42
0.0035044608912268
  0
VERTEX
  5
422
  8
0
 10
-1331.849142382773
 20
-4.083878916373909
 30
0.0
 42
-0.04745459006198
  0
VERTEX
  5
423
  8
0
 10
-1238.906822660031
 20
82.83178979815104
 30
0.0
 42
-0.0015376357800785
  0
VERTEX
  5
424
  8
0
 10
-1166.73048265561
 20
138.1563082409488
 30
0.0
 42
-0.055665264504417
  0
VERTEX
  5
425
  8
0
 10
-1077.915461467751
 20
191.3582751405785
 30
0.0
 42
-4.052430870981263
  0
SEQEND
  5
41D
  8
0
  0
POLYLINE
  5
160
  8
0
 66
     1
 10
0.0
 20
0.0
 30
0.0
 40
9.0
 41
9.0
  0
VERTEX
  5
427
  8
0
 10
-1788.324478267379
 20
-907.0875542691751
 30
0.0
 42
-0.1260547797655288
  0
VERTEX
  5
428
  8
0
 10
-1659.81573541655
 20
-465.1697559262758
 30
0.0
 42
-0.0230239801146226
  0
VERTEX
  5
429
  8
0
 10
-1547.899214611675
 20
-294.2816243652631
 30
0.0
 42
-0.0283547316139696
  0
VERTEX
  5
42A
  8
0
 10
-1444.795267813083
 20
-167.4459975711518
 30
0.0
 42
-0.0158378467828083
  0
VERTEX
  5
42B
  8
0
 10
-1299.323670637569
 20
-17.70027551700337
 30
0.0
 42
-0.0295942659588221
  0
VERTEX
  5
42C
  8
0
 10
-1221.110145911098
 20
49.39478414582251
 30
0.0
 42
-0.0076712675181049
  0
VERTEX
  5
42D
  8
0
 10
-1136.060186527559
 20
111.9963413440768
 30
0.0
 42
-0.0428702449386979
  0
VERTEX
  5
42E
  8
0
 10
-1013.690171760129
 20
184.2693798177758
 30
0.0
 42
-3.870021075592302
  0
SEQEND
  5
426
  8
0
  0
POLYLINE
  5
161
  8
0
 66
     1
 10
0.0
 20
0.0
 30
0.0
 40
9.0
 41
9.0
  0
VERTEX
  5
430
  8
0
 10
-1138.99151416114
 20
74.43413446848523
 30
0.0
 42
0.0442338753476241
  0
VERTEX
  5
431
  8
0
 10
-1425.644026507508
 20
-183.5155393863771
 30
0.0
 42
0.0389182843728958
  0
VERTEX
  5
432
  8
0
 10
-1583.141715956606
 20
-381.5601598788226
 30
0.0
 42
0.0340511872473075
  0
VERTEX
  5
433
  8
0
 10
-1668.799477578003
 20
-529.1136458992094
 30
0.0
 42
0.0385146525295458
  0
VERTEX
  5
434
  8
0
 10
-1726.465812631004
 20
-673.1127639317456
 30
0.0
 42
0.07396732096578
  0
VERTEX
  5
435
  8
0
 10
-1763.324478267379
 20
-907.0875542691751
 30
0.0
 42
3.491077452656592
  0
SEQEND
  5
42F
  8
0
  0
ENDBLK
  5
2B0
  8
0
  0
BLOCK
  8
0
  2
*D2
 70
     1
 10
0.0
 20
0.0
 30
0.0
  3
*D2
  1

  0
POINT
  5
200
  8
DEFPOINTS
  6
BYBLOCK
 62
     0
 10
4748.992791099386
 20
-6889.115201260713
 30
0.0
  0
POINT
  5
201
  8
DEFPOINTS
  6
BYBLOCK
 62
     0
 10
8455.334610142998
 20
-6484.23210651793
 30
0.0
  0
LINE
  5
202
  8
0
  6
BYBLOCK
 62
     0
 10
4748.992791099386
 20
-6889.740201260713
 30
0.0
 11
4748.992791099386
 21
-7184.052872266756
 31
0.0
  0
LINE
  5
203
  8
0
  6
BYBLOCK
 62
     0
 10
8455.334610142998
 20
-6484.85710651793
 30
0.0
 11
8455.334610142998
 21
-7184.052872266756
 31
0.0
  0
LINE
  5
204
  8
0
  6
BYBLOCK
 62
     0
 10
4798.992791099386
 20
-7182.802872266756
 30
0.0
 11
8405.334610142998
 21
-7182.802872266756
 31
0.0
  0
SOLID
  5
205
  8
0
  6
BYBLOCK
 62
     0
 10
4748.992791099386
 20
-7182.802872266756
 30
0.0
 11
4798.992791099386
 21
-7191.136205600091
 31
0.0
 12
4798.992791099386
 22
-7174.469538933421
 32
0.0
 13
4798.992791099386
 23
-7174.469538933421
 33
0.0
  0
SOLID
  5
206
  8
0
  6
BYBLOCK
 62
     0
 10
8455.334610142998
 20
-7182.802872266756
 30
0.0
 11
8405.334610142998
 21
-7191.136205600091
 31
0.0
 12
8405.334610142998
 22
-7174.469538933421
 32
0.0
 13
8405.334610142998
 23
-7174.469538933421
 33
0.0
  0
TEXT
  5
207
  8
0
  6
BYBLOCK
 62
     0
 10
6514.663700621191
 20
-7182.177872266756
 30
0.0
 40
50.0
  1
3706
  0
ENDBLK
  5
2B2
  8
INFO
  0
BLOCK
  8
0
  2
*D3
 70
     1
 10
0.0
 20
0.0
 30
0.0
  3
*D3
  1

  0
POINT
  5
20C
  8
DEFPOINTS
  6
BYBLOCK
 62
     0
 10
5046.40406133015
 20
-7073.632236625264
 30
0.0
  0
POINT
  5
20D
  8
DEFPOINTS
  6
BYBLOCK
 62
     0
 10
5975.155918523688
 20
-5534.028881606323
 30
0.0
  0
LINE
  5
20E
  8
0
  6
BYBLOCK
 62
     0
 10
5045.77906133015
 20
-7073.632236625264
 30
0.0
 11
4677.573616126436
 21
-7073.632236625264
 31
0.0
  0
LINE
  5
20F
  8
0
  6
BYBLOCK
 62
     0
 10
5974.530918523688
 20
-5534.028881606323
 30
0.0
 11
4677.573616126436
 21
-5534.028881606323
 31
0.0
  0
LINE
  5
210
  8
0
  6
BYBLOCK
 62
     0
 10
4678.823616126436
 20
-7023.632236625264
 30
0.0
 11
4678.823616126436
 21
-5584.028881606323
 31
0.0
  0
SOLID
  5
211
  8
0
  6
BYBLOCK
 62
     0
 10
4678.823616126436
 20
-7073.632236625264
 30
0.0
 11
4687.156949459771
 21
-7023.632236625264
 31
0.0
 12
4670.490282793101
 22
-7023.632236625264
 32
0.0
 13
4670.490282793101
 23
-7023.632236625264
 33
0.0
  0
SOLID
  5
212
  8
0
  6
BYBLOCK
 62
     0
 10
4678.823616126436
 20
-5534.028881606323
 30
0.0
 11
4687.156949459771
 21
-5584.028881606323
 31
0.0
 12
4670.490282793101
 22
-5584.028881606323
 32
0.0
 13
4670.490282793101
 23
-5584.028881606323
 33
0.0
  0
TEXT
  5
213
  8
0
  6
BYBLOCK
 62
     0
 10
4678.198616126436
 20
-6383.080559115793
 30
0.0
 40
50.0
  1
1540
 50
90.0
  0
ENDBLK
  5
2B4
  8
INFO
  0
BLOCK
  8
0
  2
*D4
 70
     1
 10
0.0
 20
0.0
 30
0.0
  3
*D4
  1

  0
POINT
  5
21B
  8
DEFPOINTS
  6
BYBLOCK
 62
     0
 10
8270.817574778444
 20
-6781.643376748694
 30
0.0
  0
POINT
  5
21C
  8
DEFPOINTS
  6
BYBLOCK
 62
     0
 10
8455.334610142998
 20
-6484.85710651793
 30
0.0
  0
LINE
  5
21D
  8
0
  6
BYBLOCK
 62
     0
 10
8271.348355434362
 20
-6781.973372044577
 30
0.0
 11
8498.234782551601
 21
-6923.03249470405
 31
0.0
  0
LINE
  5
21E
  8
0
  6
BYBLOCK
 62
     0
 10
8455.865390798916
 20
-6485.187101813813
 30
0.0
 11
8682.751817916154
 21
-6626.246224473286
 31
0.0
  0
LINE
  5
21F
  8
0
  6
BYBLOCK
 62
     0
 10
8523.572844910357
 20
-6879.910051638939
 30
0.0
 11
8655.290632933731
 21
-6668.048686354869
 31
0.0
  0
SOLID
  5
220
  8
0
  6
BYBLOCK
 62
     0
 10
8497.173221239767
 20
-6922.372504112285
 30
0.0
 11
8530.649920322583
 21
-6884.309988917372
 31
0.0
 12
8516.495769498131
 22
-6875.510114360506
 32
0.0
 13
8516.495769498131
 23
-6875.510114360506
 33
0.0
  0
SOLID
  5
221
  8
0
  6
BYBLOCK
 62
     0
 10
8681.690256604321
 20
-6625.586233881521
 30
0.0
 11
8662.367708345957
 21
-6672.448623633301
 31
0.0
 12
8648.213557521505
 22
-6663.648749076436
 32
0.0
 13
8648.213557521505
 23
-6663.648749076436
 33
0.0
  0
TEXT
  5
222
  8
0
  6
BYBLOCK
 62
     0
 10
8553.657460665891
 20
-6830.336747752939
 30
0.0
 40
50.0
  1
349
 50
58.13008557156036
 41
0.9999999999999999
  0
ENDBLK
  5
2B6
  8
INFO
  0
BLOCK
  8
0
  2
*D5
 70
     1
 10
0.0
 20
0.0
 30
0.0
  3
*D5
  1

  0
POINT
  5
227
  8
DEFPOINTS
  6
BYBLOCK
 62
     0
 10
4748.992791099386
 20
-6889.740201260713
 30
0.0
  0
POINT
  5
228
  8
DEFPOINTS
  6
BYBLOCK
 62
     0
 10
5045.77906133015
 20
-7073.632236625264
 30
0.0
  0
LINE
  5
229
  8
0
  6
BYBLOCK
 62
     0
 10
4748.663603106222
 20
-6890.271482979913
 30
0.0
 11
4572.135479139056
 21
-7175.173019901771
 31
0.0
  0
LINE
  5
22A
  8
0
  6
BYBLOCK
 62
     0
 10
5045.449873336987
 20
-7074.163518344465
 30
0.0
 11
4868.921749369821
 21
-7359.065055266323
 31
0.0
  0
LINE
  5
22B
  8
0
  6
BYBLOCK
 62
     0
 10
4615.29639266144
 20
-7200.445495916464
 30
0.0
 11
4827.07758782009
 21
-7331.667452374827
 31
0.0
  0
SOLID
  5
22C
  8
0
  6
BYBLOCK
 62
     0
 10
4572.793855125383
 20
-7174.11045646337
 30
0.0
 11
4610.907219419257
 21
-7207.529252172475
 31
0.0
 12
4619.685565903624
 22
-7193.361739660453
 32
0.0
 13
4619.685565903624
 23
-7193.361739660453
 33
0.0
  0
SOLID
  5
22D
  8
0
  6
BYBLOCK
 62
     0
 10
4869.580125356148
 20
-7358.002491827921
 30
0.0
 11
4822.688414577907
 21
-7338.751208630838
 31
0.0
 12
4831.466761062274
 22
-7324.583696118816
 32
0.0
 13
4831.466761062274
 23
-7324.583696118816
 33
0.0
  0
TEXT
  5
22E
  8
0
  6
BYBLOCK
 62
     0
 10
4664.775290623293
 20
-7230.367914756565
 30
0.0
 40
50.0
  1
349
 50
328.2171897393491
  0
ENDBLK
  5
2B8
  8
INFO
  0
BLOCK
  8
0
  2
*D6
 70
     1
 10
0.0
 20
0.0
 30
0.0
  3
*D6
  1

  0
LINE
  5
232
  8
INFO
 62
     0
 10
-1335.388114197114
 20
-1022.628290567119
 30
0.0
 11
-1335.388114197114
 21
-1316.433461573162
 31
0.0
  0
LINE
  5
233
  8
INFO
 62
     0
 10
2370.953704846498
 20
-617.7451958243364
 30
0.0
 11
2370.953704846498
 21
-1316.433461573162
 31
0.0
  0
LINE
  5
234
  8
INFO
 62
     0
 10
-1285.388114197114
 20
-1316.253461573162
 30
0.0
 11
430.192795324692
 21
-1316.253461573162
 31
0.0
  0
LINE
  5
235
  8
INFO
 62
     0
 10
2320.953704846498
 20
-1316.253461573162
 30
0.0
 11
605.372795324692
 21
-1316.253461573162
 31
0.0
  0
SOLID
  5
236
  8
INFO
 62
     0
 10
-1285.388114197114
 20
-1307.920128239829
 30
0.0
 11
-1285.388114197114
 21
-1324.586794906495
 31
0.0
 12
-1335.388114197114
 22
-1316.253461573162
 32
0.0
 13
-1335.388114197114
 23
-1316.253461573162
 33
0.0
  0
SOLID
  5
237
  8
INFO
 62
     0
 10
2320.953704846498
 20
-1324.586794906495
 30
0.0
 11
2320.953704846498
 21
-1307.920128239829
 31
0.0
 12
2370.953704846498
 22
-1316.253461573162
 32
0.0
 13
2370.953704846498
 23
-1316.253461573162
 33
0.0
  0
TEXT
  5
238
  8
INFO
 62
     0
 10
430.282795324692
 20
-1341.253461573162
 30
0.0
 40
50.0
  1
3706
  0
POINT
  5
239
  8
DEFPOINTS
 62
     0
 10
-1335.388114197114
 20
-1022.565790567119
 30
0.0
  0
POINT
  5
2C3
  8
DEFPOINTS
 62
     0
 10
2370.953704846498
 20
-617.6826958243364
 30
0.0
  0
POINT
  5
2C4
  8
DEFPOINTS
 62
     0
 10
2370.953704846498
 20
-1316.253461573162
 30
0.0
  0
ENDBLK
  5
2BA
  8
INFO
  0
BLOCK
  8
0
  2
*D7
 70
     1
 10
0.0
 20
0.0
 30
0.0
  3
*D7
  1

  0
LINE
  5
23D
  8
INFO
 62
     0
 10
-1038.039343966349
 20
-1207.08282593167
 30
0.0
 11
-1405.737289170064
 21
-1207.08282593167
 31
0.0
  0
LINE
  5
23E
  8
INFO
 62
     0
 10
-109.2874867728115
 20
332.5205290872709
 30
0.0
 11
-1405.737289170064
 21
332.520529087271
 31
0.0
  0
LINE
  5
23F
  8
INFO
 62
     0
 10
-1405.557289170064
 20
-1157.08282593167
 30
0.0
 11
-1405.557289170064
 21
-516.6211484221996
 31
0.0
  0
LINE
  5
240
  8
INFO
 62
     0
 10
-1405.557289170064
 20
282.520529087271
 30
0.0
 11
-1405.557289170064
 21
-357.9411484221998
 31
0.0
  0
SOLID
  5
241
  8
INFO
 62
     0
 10
-1413.890622503398
 20
-1157.08282593167
 30
0.0
 11
-1397.223955836731
 21
-1157.08282593167
 31
0.0
 12
-1405.557289170064
 22
-1207.08282593167
 32
0.0
 13
-1405.557289170064
 23
-1207.08282593167
 33
0.0
  0
SOLID
  5
242
  8
INFO
 62
     0
 10
-1397.223955836731
 20
282.520529087271
 30
0.0
 11
-1413.890622503397
 21
282.520529087271
 31
0.0
 12
-1405.557289170064
 22
332.520529087271
 32
0.0
 13
-1405.557289170064
 23
332.520529087271
 33
0.0
  0
TEXT
  5
243
  8
INFO
 62
     0
 10
-1380.557289170064
 20
-516.5311484221996
 30
0.0
 40
50.0
  1
1540
 50
90.0
  0
POINT
  5
244
  8
DEFPOINTS
 62
     0
 10
-1037.976843966349
 20
-1207.08282593167
 30
0.0
  0
POINT
  5
2C5
  8
DEFPOINTS
 62
     0
 10
-109.2249867728115
 20
332.5205290872709
 30
0.0
  0
POINT
  5
2C6
  8
DEFPOINTS
 62
     0
 10
-1405.557289170064
 20
332.520529087271
 30
0.0
  0
ENDBLK
  5
2BC
  8
INFO
  0
BLOCK
  8
0
  2
*D8
 70
     1
 10
0.0
 20
0.0
 30
0.0
  3
*D8
  1

  0
LINE
  5
248
  8
INFO
 62
     0
 10
2186.489747547536
 20
-915.1269655846885
 30
0.0
 11
2412.945180772172
 21
-1055.918132063905
 31
0.0
  0
LINE
  5
249
  8
INFO
 62
     0
 10
2371.00678291209
 20
-618.3406953539246
 30
0.0
 11
2597.462216136725
 21
-759.1318618331416
 31
0.0
  0
LINE
  5
24A
  8
INFO
 62
     0
 10
2439.191939613857
 20
-1013.360640945344
 30
0.0
 11
2469.7598167027
 21
-964.1937647696792
 31
0.0
  0
LINE
  5
24B
  8
INFO
 62
     0
 10
2570.909727637231
 20
-801.4992756612743
 30
0.0
 11
2540.341850548389
 21
-850.6661518369393
 31
0.0
  0
SOLID
  5
24C
  8
INFO
 62
     0
 10
2432.114864201633
 20
-1008.960703666913
 30
0.0
 11
2446.269015026082
 21
-1017.760578223776
 31
0.0
 12
2412.792315943268
 22
-1055.823093418691
 32
0.0
 13
2412.792315943268
 23
-1055.823093418691
 33
0.0
  0
SOLID
  5
24D
  8
INFO
 62
     0
 10
2577.986803049456
 20
-805.899212939706
 30
0.0
 11
2563.832652225007
 21
-797.0993383828426
 31
0.0
 12
2597.309351307821
 22
-759.0368231879276
 32
0.0
 13
2597.309351307821
 23
-759.0368231879276
 33
0.0
  0
TEXT
  5
24E
  8
INFO
 62
     0
 10
2491.03856226198
 20
-977.3171441905221
 30
0.0
 40
50.0
  1
349
 50
58.13008557156036
 41
0.9999999999999999
  0
POINT
  5
24F
  8
DEFPOINTS
 62
     0
 10
2186.436669481945
 20
-915.0939660551003
 30
0.0
  0
POINT
  5
2C7
  8
DEFPOINTS
 62
     0
 10
2370.953704846498
 20
-618.3076958243364
 30
0.0
  0
POINT
  5
2C8
  8
DEFPOINTS
 62
     0
 10
2597.309351307821
 20
-759.0368231879274
 30
0.0
  0
ENDBLK
  5
2BE
  8
INFO
  0
BLOCK
  8
0
  2
*D9
 70
     1
 10
0.0
 20
0.0
 30
0.0
  3
*D9
  1

  0
LINE
  5
253
  8
INFO
 62
     0
 10
-1335.421032996431
 20
-1023.243918739039
 30
0.0
 11
-1511.681856313148
 21
-1307.714054904906
 31
0.0
  0
LINE
  5
254
  8
INFO
 62
     0
 10
-1038.634762765666
 20
-1207.13595410359
 30
0.0
 11
-1214.895586082383
 21
-1491.606090269457
 31
0.0
  0
LINE
  5
255
  8
INFO
 62
     0
 10
-1469.08451263506
 20
-1333.89608522287
 30
0.0
 11
-1420.011307233936
 21
-1364.302382711155
 31
0.0
  0
LINE
  5
256
  8
INFO
 62
     0
 10
-1257.30331747641
 20
-1465.118041681234
 30
0.0
 11
-1306.376522877533
 21
-1434.711744192948
 31
0.0
  0
SOLID
  5
257
  8
INFO
 62
     0
 10
-1464.695339392877
 20
-1326.81232896686
 30
0.0
 11
-1473.473685877242
 21
-1340.97984147888
 31
0.0
 12
-1511.587050171117
 22
-1307.561045769776
 32
0.0
 13
-1511.587050171117
 23
-1307.561045769776
 33
0.0
  0
SOLID
  5
258
  8
INFO
 62
     0
 10
-1261.692490718592
 20
-1472.201797937243
 30
0.0
 11
-1252.914144234227
 21
-1458.034285425224
 31
0.0
 12
-1214.800779940352
 22
-1491.453081134328
 32
0.0
 13
-1214.800779940352
 23
-1491.453081134328
 33
0.0
  0
TEXT
  5
259
  8
INFO
 62
     0
 10
-1433.102322392918
 20
-1385.6010545502
 30
0.0
 40
50.0
  1
349
 50
328.2171897393491
  0
POINT
  5
25A
  8
DEFPOINTS
 62
     0
 10
-1335.388114197114
 20
-1023.190790567119
 30
0.0
  0
POINT
  5
2C9
  8
DEFPOINTS
 62
     0
 10
-1038.601843966349
 20
-1207.08282593167
 30
0.0
  0
POINT
  5
2CA
  8
DEFPOINTS
 62
     0
 10
-1214.800779940352
 20
-1491.453081134328
 30
0.0
  0
ENDBLK
  5
2C0
  8
INFO
  0
BLOCK
  8
0
  2
NRE-412
 70
     0
 10
0.0
 20
0.0
 30
0.0
  3
NRE-412
  1

  0
POLYLINE
  5
25E
  8
0
 66
     1
 10
0.0
 20
0.0
 30
0.0
 40
9.0
 41
9.0
  0
VERTEX
  5
437
  8
0
 10
-241.703052597728
 20
177.4413168268766
 30
0.0
  0
VERTEX
  5
438
  8
0
 10
-674.6507165586918
 20
-163.0604758003356
 30
0.0
  0
SEQEND
  5
436
  8
0
  0
POLYLINE
  5
25F
  8
0
 66
     1
 10
0.0
 20
0.0
 30
0.0
 70
     1
  0
VERTEX
  5
43A
  8
0
 10
1533.83136794701
 20
-510.2108713123134
 30
0.0
  0
VERTEX
  5
43B
  8
0
 10
2186.436669481945
 20
-915.0939660551003
 30
0.0
  0
VERTEX
  5
43C
  8
0
 10
2370.953704846498
 20
-617.6826958243364
 30
0.0
  0
VERTEX
  5
43D
  8
0
 10
1718.348403311563
 20
-212.7996010815496
 30
0.0
  0
SEQEND
  5
439
  8
0
  0
POLYLINE
  5
260
  8
0
 66
     1
 10
0.0
 20
0.0
 30
0.0
 70
     1
  0
VERTEX
  5
43F
  8
0
 10
881.2260664120759
 20
-105.3277765695266
 30
0.0
  0
VERTEX
  5
440
  8
0
 10
1533.83136794701
 20
-510.2108713123134
 30
0.0
  0
VERTEX
  5
441
  8
0
 10
1718.348403311563
 20
-212.7996010815496
 30
0.0
  0
VERTEX
  5
442
  8
0
 10
1065.743101776628
 20
192.0834936612382
 30
0.0
  0
SEQEND
  5
43E
  8
0
  0
POLYLINE
  5
261
  8
0
 66
     1
 10
0.0
 20
0.0
 30
0.0
 70
     1
  0
VERTEX
  5
444
  8
0
 10
-861.9701206046375
 20
-259.4934458036141
 30
0.0
  0
VERTEX
  5
445
  8
0
 10
-564.5588503738727
 20
-444.0104811681658
 30
0.0
  0
VERTEX
  5
446
  8
0
 10
-1037.976843966349
 20
-1207.08282593167
 30
0.0
  0
VERTEX
  5
447
  8
0
 10
-1335.388114197114
 20
-1022.565790567119
 30
0.0
  0
SEQEND
  5
443
  8
0
  0
LINE
  5
262
  8
0
 10
0.0
 20
0.0
 30
0.0
 11
-109.2249867728115
 21
332.5205290872709
 31
0.0
  0
LINE
  5
263
  8
0
 10
881.2260664120759
 20
-105.3277765695266
 30
0.0
 11
0.0
 21
0.0
 31
0.0
  0
LINE
  5
264
  8
0
 10
0.0
 20
0.0
 30
0.0
 11
-564.5588503738727
 21
-444.0104811681658
 31
0.0
  0
LINE
  5
265
  8
0
 10
-109.2249867728115
 20
332.5205290872709
 30
0.0
 11
-861.9701206046375
 21
-259.4934458036141
 31
0.0
  0
POLYLINE
  5
266
  8
0
 66
     1
 10
0.0
 20
0.0
 30
0.0
 40
9.0
 41
9.0
  0
VERTEX
  5
449
  8
0
 10
1574.7723536568
 20
-300.2467679228384
 30
0.0
  0
VERTEX
  5
44A
  8
0
 10
1746.855486269888
 20
-436.4294668319481
 30
0.0
  0
SEQEND
  5
448
  8
0
  0
POLYLINE
  5
267
  8
0
 66
     1
 10
0.0
 20
0.0
 30
0.0
 40
9.0
 41
9.0
  0
VERTEX
  5
44C
  8
0
 10
1739.254374902742
 20
-308.5128227251162
 30
0.0
  0
VERTEX
  5
44D
  8
0
 10
1658.313644928486
 20
-238.6074682812832
 30
0.0
  0
VERTEX
  5
44E
  8
0
 10
1575.274431890031
 20
-177.3574266512314
 30
0.0
  0
VERTEX
  5
44F
  8
0
 10
1282.625096427627
 20
4.205255015240255
 30
0.0
  0
SEQEND
  5
44B
  8
0
  0
POLYLINE
  5
268
  8
0
 66
     1
 10
0.0
 20
0.0
 30
0.0
 40
9.0
 41
9.0
  0
VERTEX
  5
451
  8
0
 10
1195.503673028588
 20
-64.9445465179715
 30
0.0
  0
VERTEX
  5
452
  8
0
 10
1291.322873789629
 20
-105.2545095979695
 30
0.0
  0
VERTEX
  5
453
  8
0
 10
1391.445195535006
 20
-157.0881590193976
 30
0.0
  0
VERTEX
  5
454
  8
0
 10
2159.273725461761
 20
-633.4569391953392
 30
0.0
  0
VERTEX
  5
455
  8
0
 10
2267.283790819317
 20
-683.3514282779042
 30
0.0
  0
SEQEND
  5
450
  8
0
  0
POLYLINE
  5
269
  8
0
 66
     1
 10
0.0
 20
0.0
 30
0.0
 40
9.0
 41
9.0
  0
VERTEX
  5
457
  8
0
 10
1068.041700072547
 20
14.13418292398001
 30
0.0
  0
VERTEX
  5
458
  8
0
 10
1464.872613969153
 20
-152.8077176671859
 30
0.0
  0
VERTEX
  5
459
  8
0
 10
1603.76221812395
 20
-224.4520839892466
 30
0.0
  0
VERTEX
  5
45A
  8
0
 10
2074.563585460523
 20
-516.5421331629632
 30
0.0
  0
VERTEX
  5
45B
  8
0
 10
2267.27484157275
 20
-623.6188623056605
 30
0.0
  0
SEQEND
  5
456
  8
0
  0
POLYLINE
  5
26A
  8
0
 66
     1
 10
0.0
 20
0.0
 30
0.0
 40
9.0
 41
9.0
  0
VERTEX
  5
45D
  8
0
 10
1158.265516426982
 20
-176.7206717448089
 30
0.0
  0
VERTEX
  5
45E
  8
0
 10
2166.510582813354
 20
-802.2463635795521
 30
0.0
  0
SEQEND
  5
45C
  8
0
  0
POLYLINE
  5
26B
  8
0
 66
     1
 10
0.0
 20
0.0
 30
0.0
 40
9.0
 41
9.0
  0
VERTEX
  5
460
  8
0
 10
1171.445304667308
 20
-155.4770095854683
 30
0.0
  0
VERTEX
  5
461
  8
0
 10
2179.69037105368
 20
-781.0027014202115
 30
0.0
  0
SEQEND
  5
45F
  8
0
  0
POLYLINE
  5
26C
  8
0
 66
     1
 10
0.0
 20
0.0
 30
0.0
 40
9.0
 41
9.0
  0
VERTEX
  5
463
  8
0
 10
1171.445304667308
 20
-155.4770095854683
 30
0.0
  0
VERTEX
  5
464
  8
0
 10
1024.5959637417
 20
-79.0804257734244
 30
0.0
  0
SEQEND
  5
462
  8
0
  0
POLYLINE
  5
26D
  8
0
 66
     1
 10
0.0
 20
0.0
 30
0.0
 40
9.0
 41
9.0
  0
VERTEX
  5
466
  8
0
 10
1171.445304667308
 20
-155.4770095854683
 30
0.0
  0
VERTEX
  5
467
  8
0
 10
1024.5959637417
 20
-79.0804257734244
 30
0.0
  0
SEQEND
  5
465
  8
0
  0
POLYLINE
  5
26E
  8
0
 66
     1
 10
0.0
 20
0.0
 30
0.0
 40
9.0
 41
9.0
  0
VERTEX
  5
469
  8
0
 10
1158.265516426982
 20
-176.7206717448089
 30
0.0
  0
VERTEX
  5
46A
  8
0
 10
1024.5959637417
 20
-79.0804257734244
 30
0.0
  0
SEQEND
  5
468
  8
0
  0
POLYLINE
  5
26F
  8
0
 66
     1
 10
0.0
 20
0.0
 30
0.0
 40
9.0
 41
9.0
  0
VERTEX
  5
46C
  8
0
 10
1024.5959637417
 20
-79.0804257734244
 30
0.0
  0
VERTEX
  5
46D
  8
0
 10
933.6810046692272
 20
-22.67584263396839
 30
0.0
  0
SEQEND
  5
46B
  8
0
  0
POLYLINE
  5
270
  8
0
 66
     1
 10
0.0
 20
0.0
 30
0.0
 40
9.0
 41
9.0
  0
VERTEX
  5
46F
  8
0
 10
974.3343305807257
 20
42.85066701624237
 30
0.0
  0
VERTEX
  5
470
  8
0
 10
2278.695187164222
 20
-766.3883309397179
 30
0.0
  0
SEQEND
  5
46E
  8
0
  0
POLYLINE
  5
271
  8
0
 66
     1
 10
0.0
 20
0.0
 30
0.0
 40
9.0
 41
9.0
  0
VERTEX
  5
472
  8
0
 10
-713.2644854892542
 20
-351.75196348589
 30
0.0
  0
VERTEX
  5
473
  8
0
 10
-1186.682479081733
 20
-1114.824308249395
 30
0.0
  0
SEQEND
  5
471
  8
0
  0
POLYLINE
  5
272
  8
0
 66
     1
 10
0.0
 20
0.0
 30
0.0
 40
9.0
 41
9.0
  0
VERTEX
  5
475
  8
0
 10
-744.7426197671002
 20
-332.2226026407261
 30
0.0
  0
VERTEX
  5
476
  8
0
 10
-1208.288467477525
 20
-1079.382663528196
 30
0.0
  0
SEQEND
  5
474
  8
0
  0
POLYLINE
  5
273
  8
0
 66
     1
 10
0.0
 20
0.0
 30
0.0
 40
9.0
 41
9.0
  0
VERTEX
  5
478
  8
0
 10
-1214.500244976062
 20
-1075.528812369547
 30
0.0
  0
VERTEX
  5
479
  8
0
 10
-1202.076689978988
 20
-1083.236514686845
 30
0.0
  0
SEQEND
  5
477
  8
0
  0
POLYLINE
  5
274
  8
0
 66
     1
 10
0.0
 20
0.0
 30
0.0
 40
9.0
 41
9.0
  0
VERTEX
  5
47B
  8
0
 10
683.7534420422089
 20
153.4756129931675
 30
0.0
  0
VERTEX
  5
47C
  8
0
 10
520.3324261247999
 20
167.2441116957098
 30
0.0
  0
SEQEND
  5
47A
  8
0
  0
POLYLINE
  5
275
  8
0
 66
     1
 10
0.0
 20
0.0
 30
0.0
 40
9.0
 41
9.0
  0
VERTEX
  5
47E
  8
0
 10
590.9731758592398
 20
161.2925083134569
 30
0.0
  0
VERTEX
  5
47F
  8
0
 10
519.2829978700338
 20
154.7882415800532
 30
0.0
  0
SEQEND
  5
47D
  8
0
  0
POLYLINE
  5
276
  8
0
 66
     1
 10
0.0
 20
0.0
 30
0.0
 40
9.0
 41
9.0
  0
VERTEX
  5
481
  8
0
 10
842.0051210288812
 20
108.6575798156719
 30
0.0
  0
VERTEX
  5
482
  8
0
 10
688.0637597738405
 20
165.2089484546796
 30
0.0
  0
SEQEND
  5
480
  8
0
  0
POLYLINE
  5
277
  8
0
 66
     1
 10
0.0
 20
0.0
 30
0.0
 40
9.0
 41
9.0
  0
VERTEX
  5
484
  8
0
 10
754.6068118601907
 20
140.7639218665017
 30
0.0
  0
VERTEX
  5
485
  8
0
 10
683.7534420422089
 20
153.4756129931675
 30
0.0
  0
SEQEND
  5
483
  8
0
  0
POLYLINE
  5
278
  8
0
 66
     1
 10
0.0
 20
0.0
 30
0.0
 40
9.0
 41
9.0
  0
VERTEX
  5
487
  8
0
 10
-1087.023532713392
 20
-954.1903929542114
 30
0.0
  0
VERTEX
  5
488
  8
0
 10
-1025.806601154092
 20
-808.6740737401697
 30
0.0
  0
SEQEND
  5
486
  8
0
  0
POLYLINE
  5
279
  8
0
 66
     1
 10
0.0
 20
0.0
 30
0.0
 40
9.0
 41
9.0
  0
VERTEX
  5
48A
  8
0
 10
-981.5852267907922
 20
-784.2410956794884
 30
0.0
  0
VERTEX
  5
48B
  8
0
 10
-876.5378586944735
 20
-662.3430219569937
 30
0.0
  0
SEQEND
  5
489
  8
0
  0
POLYLINE
  5
27A
  8
0
 66
     1
 10
0.0
 20
0.0
 30
0.0
 40
9.0
 41
9.0
  0
VERTEX
  5
48D
  8
0
 10
-968.9695220232234
 20
-694.2161348047439
 30
0.0
  0
VERTEX
  5
48E
  8
0
 10
-942.2182063860118
 20
-627.386843191397
 30
0.0
  0
SEQEND
  5
48C
  8
0
  0
POLYLINE
  5
27B
  8
0
 66
     1
 10
0.0
 20
0.0
 30
0.0
 40
9.0
 41
9.0
  0
VERTEX
  5
490
  8
0
 10
469.4944174279153
 20
207.1269043093307
 30
0.0
  0
VERTEX
  5
491
  8
0
 10
632.9154333453253
 20
193.3584056067894
 30
0.0
  0
SEQEND
  5
48F
  8
0
  0
POLYLINE
  5
27C
  8
0
 66
     1
 10
0.0
 20
0.0
 30
0.0
 40
9.0
 41
9.0
  0
VERTEX
  5
493
  8
0
 10
562.2746836108854
 20
199.3100089890422
 30
0.0
  0
VERTEX
  5
494
  8
0
 10
631.8660050905573
 20
180.9025354911337
 30
0.0
  0
SEQEND
  5
492
  8
0
  0
POLYLINE
  5
27D
  8
0
 66
     1
 10
0.0
 20
0.0
 30
0.0
 40
9.0
 41
9.0
  0
VERTEX
  5
496
  8
0
 10
355.953839680531
 20
139.9698042431182
 30
0.0
  0
VERTEX
  5
497
  8
0
 10
519.2829978700338
 20
154.7882415800532
 30
0.0
  0
SEQEND
  5
495
  8
0
  0
POLYLINE
  5
27E
  8
0
 66
     1
 10
0.0
 20
0.0
 30
0.0
  0
VERTEX
  5
498
  8
0
 10
631.8660050905573
 20
180.9025354911337
 30
0.0
  0
VERTEX
  5
499
  8
0
 10
646.7381993089726
 20
176.9141594082582
 30
0.0
  0
VERTEX
  5
49A
  8
0
 10
661.6031865197472
 20
172.8137283600636
 30
0.0
  0
VERTEX
  5
49B
  8
0
 10
676.4548030857058
 20
168.5956081212247
 30
0.0
  0
VERTEX
  5
49C
  8
0
 10
691.2868853696728
 20
164.2541644664167
 30
0.0
  0
VERTEX
  5
49D
  8
0
 10
706.0932697344729
 20
159.7837631703145
 30
0.0
  0
VERTEX
  5
49E
  8
0
 10
720.8677925429308
 20
155.1787700075932
 30
0.0
  0
VERTEX
  5
49F
  8
0
 10
735.6042901578712
 20
150.4335507529277
 30
0.0
  0
VERTEX
  5
4A0
  8
0
 10
750.2965989421186
 20
145.5424711809931
 30
0.0
  0
VERTEX
  5
4A1
  8
0
 10
764.9385552584977
 20
140.4998970664643
 30
0.0
  0
VERTEX
  5
4A2
  8
0
 10
779.523995469833
 20
135.3001941840165
 30
0.0
  0
VERTEX
  5
4A3
  8
0
 10
794.0467559389492
 20
129.9377283083245
 30
0.0
  0
VERTEX
  5
4A4
  8
0
 10
808.5006730286709
 20
124.4068652140634
 30
0.0
  0
VERTEX
  5
4A5
  8
0
 10
822.8795831018229
 20
118.7019706759082
 30
0.0
  0
VERTEX
  5
4A6
  8
0
 10
837.1773225212295
 20
112.8174104685339
 30
0.0
  0
VERTEX
  5
4A7
  8
0
 10
851.3877276497157
 20
106.7475503666155
 30
0.0
  0
VERTEX
  5
4A8
  8
0
 10
865.5046348501057
 20
100.486756144828
 30
0.0
  0
VERTEX
  5
4A9
  8
0
 10
879.5218804852244
 20
94.02939357784649
 30
0.0
  0
VERTEX
  5
4AA
  8
0
 10
893.4333009178964
 20
87.3698284403459
 30
0.0
  0
VERTEX
  5
4AB
  8
0
 10
907.2327325109463
 20
80.50242650700125
 30
0.0
  0
VERTEX
  5
4AC
  8
0
 10
920.9140116271987
 20
73.42155355248757
 30
0.0
  0
VERTEX
  5
4AD
  8
0
 10
934.4709746294781
 20
66.12157535147983
 30
0.0
  0
VERTEX
  5
4AE
  8
0
 10
947.8974578806093
 20
58.59685767865307
 30
0.0
  0
VERTEX
  5
4AF
  8
0
 10
961.1872977434171
 20
50.84176630868227
 30
0.0
  0
VERTEX
  5
4B0
  8
0
 10
974.3343304957512
 20
42.85066706896154
 30
0.0
  0
SEQEND
  5
4B1
  8
0
  0
POLYLINE
  5
27F
  8
0
 66
     1
 10
0.0
 20
0.0
 30
0.0
 40
9.0
 41
9.0
  0
VERTEX
  5
4B3
  8
0
 10
631.8660050905573
 20
180.9025354911337
 30
0.0
  0
VERTEX
  5
4B4
  8
0
 10
688.0637597738405
 20
165.2089484546796
 30
0.0
  0
SEQEND
  5
4B2
  8
0
  0
POLYLINE
  5
280
  8
0
 66
     1
 10
0.0
 20
0.0
 30
0.0
 40
9.0
 41
9.0
  0
VERTEX
  5
4B6
  8
0
 10
842.0051210288812
 20
108.6575798156719
 30
0.0
 42
-0.0543888164096234
  0
VERTEX
  5
4B7
  8
0
 10
974.3341151174855
 20
42.85032035677341
 30
0.0
 42
-18.38613277532321
  0
SEQEND
  5
4B5
  8
0
  0
POLYLINE
  5
281
  8
0
 66
     1
 10
0.0
 20
0.0
 30
0.0
  0
VERTEX
  5
4B8
  8
0
 10
-692.0208233299154
 20
-364.9317517262152
 30
0.0
  0
VERTEX
  5
4B9
  8
0
 10
-665.1741832778048
 20
-324.7241423368404
 30
0.0
  0
VERTEX
  5
4BA
  8
0
 10
-635.8331849070617
 20
-286.4501604448132
 30
0.0
  0
VERTEX
  5
4BB
  8
0
 10
-604.1385335507805
 20
-250.0734423545349
 30
0.0
  0
VERTEX
  5
4BC
  8
0
 10
-570.2309345420553
 20
-215.5576243704064
 30
0.0
  0
VERTEX
  5
4BD
  8
0
 10
-534.2510932139803
 20
-182.8663427968288
 30
0.0
  0
VERTEX
  5
4BE
  8
0
 10
-496.3397148996498
 20
-151.9632339382029
 30
0.0
  0
VERTEX
  5
4BF
  8
0
 10
-456.6375049321583
 20
-122.81193409893
 30
0.0
  0
VERTEX
  5
4C0
  8
0
 10
-415.2851686445998
 20
-95.37607958341113
 30
0.0
  0
VERTEX
  5
4C1
  8
0
 10
-372.4234113700686
 20
-69.61930669604709
 30
0.0
  0
VERTEX
  5
4C2
  8
0
 10
-328.192938441659
 20
-45.5052517412391
 30
0.0
  0
VERTEX
  5
4C3
  8
0
 10
-282.7344551924653
 20
-22.99755102338811
 30
0.0
  0
VERTEX
  5
4C4
  8
0
 10
-236.1886669555814
 20
-2.059840846895142
 30
0.0
  0
VERTEX
  5
4C5
  8
0
 10
-188.696279064102
 20
17.34424248383873
 30
0.0
  0
VERTEX
  5
4C6
  8
0
 10
-140.3979968511211
 20
35.2510626644125
 30
0.0
  0
VERTEX
  5
4C7
  8
0
 10
-91.43452564973305
 20
51.69698339042514
 30
0.0
  0
VERTEX
  5
4C8
  8
0
 10
-41.9465707930321
 20
66.71836835747564
 30
0.0
  0
VERTEX
  5
4C9
  8
0
 10
7.925162385887575
 20
80.35158126116292
 30
0.0
  0
VERTEX
  5
4CA
  8
0
 10
58.0399685539316
 20
92.63298579708598
 30
0.0
  0
VERTEX
  5
4CB
  8
0
 10
108.2571423780059
 20
103.5989456608438
 30
0.0
  0
VERTEX
  5
4CC
  8
0
 10
158.435978525016
 20
113.2858245480354
 30
0.0
  0
VERTEX
  5
4CD
  8
0
 10
208.4357716618678
 20
121.7299861542596
 30
0.0
  0
VERTEX
  5
4CE
  8
0
 10
258.1158164554671
 20
128.9677941751155
 30
0.0
  0
VERTEX
  5
4CF
  8
0
 10
307.3354075727196
 20
135.0356123062021
 30
0.0
  0
VERTEX
  5
4D0
  8
0
 10
355.95383958094
 20
139.9698042340826
 30
0.0
  0
SEQEND
  5
4D1
  8
0
  0
POLYLINE
  5
282
  8
0
 66
     1
 10
0.0
 20
0.0
 30
0.0
 40
9.0
 41
9.0
  0
VERTEX
  5
4D3
  8
0
 10
1030.05176555818
 20
36.46069141795033
 30
0.0
  0
VERTEX
  5
4D4
  8
0
 10
2147.083736196249
 20
-655.3146829000671
 30
0.0
  0
VERTEX
  5
4D5
  8
0
 10
2276.191936880753
 20
-720.5897774709119
 30
0.0
  0
SEQEND
  5
4D2
  8
0
  0
POLYLINE
  5
283
  8
0
 66
     1
 10
0.0
 20
0.0
 30
0.0
  0
VERTEX
  5
4D6
  8
0
 10
632.9154333453253
 20
193.3584056067894
 30
0.0
  0
VERTEX
  5
4D7
  8
0
 10
650.6048600720717
 20
191.5661575639888
 30
0.0
  0
VERTEX
  5
4D8
  8
0
 10
668.2132656128631
 20
189.1921997205765
 30
0.0
  0
VERTEX
  5
4D9
  8
0
 10
685.7381558659677
 20
186.2595894598565
 30
0.0
  0
VERTEX
  5
4DA
  8
0
 10
703.1770367296534
 20
182.7913841651327
 30
0.0
  0
VERTEX
  5
4DB
  8
0
 10
720.5274141021884
 20
178.810641219709
 30
0.0
  0
VERTEX
  5
4DC
  8
0
 10
737.7867938818405
 20
174.3404180068894
 30
0.0
  0
VERTEX
  5
4DD
  8
0
 10
754.9526819668779
 20
169.4037719099779
 30
0.0
  0
VERTEX
  5
4DE
  8
0
 10
772.0225842555685
 20
164.0237603122784
 30
0.0
  0
VERTEX
  5
4DF
  8
0
 10
788.9940066461804
 20
158.2234405970949
 30
0.0
  0
VERTEX
  5
4E0
  8
0
 10
805.8644550369818
 20
152.0258701477314
 30
0.0
  0
VERTEX
  5
4E1
  8
0
 10
822.6314353262405
 20
145.4541063474917
 30
0.0
  0
VERTEX
  5
4E2
  8
0
 10
839.2924534122246
 20
138.5312065796798
 30
0.0
  0
VERTEX
  5
4E3
  8
0
 10
855.8450151932021
 20
131.2802282275998
 30
0.0
  0
VERTEX
  5
4E4
  8
0
 10
872.2866265674412
 20
123.7242286745556
 30
0.0
  0
VERTEX
  5
4E5
  8
0
 10
888.6147934332098
 20
115.886265303851
 30
0.0
  0
VERTEX
  5
4E6
  8
0
 10
904.8270216887757
 20
107.7893954987901
 30
0.0
  0
VERTEX
  5
4E7
  8
0
 10
920.9208172324074
 20
99.4566766426769
 30
0.0
  0
VERTEX
  5
4E8
  8
0
 10
936.8936859623727
 20
90.91116611881526
 30
0.0
  0
VERTEX
  5
4E9
  8
0
 10
952.7431337769397
 20
82.17592131050914
 30
0.0
  0
VERTEX
  5
4EA
  8
0
 10
968.4666665743762
 20
73.27399960106256
 30
0.0
  0
VERTEX
  5
4EB
  8
0
 10
984.0617902529505
 20
64.22845837377942
 30
0.0
  0
VERTEX
  5
4EC
  8
0
 10
999.5260107109305
 20
55.06235501196369
 30
0.0
  0
VERTEX
  5
4ED
  8
0
 10
1014.856833846584
 20
45.79874689891935
 30
0.0
  0
VERTEX
  5
4EE
  8
0
 10
1030.051765473163
 20
36.46069147060118
 30
0.0
  0
SEQEND
  5
4EF
  8
0
  0
POLYLINE
  5
284
  8
0
 66
     1
 10
0.0
 20
0.0
 30
0.0
  0
VERTEX
  5
4F0
  8
0
 10
520.3324261247999
 20
167.2441116957098
 30
0.0
  0
VERTEX
  5
4F1
  8
0
 10
477.6364435620531
 20
170.0184017306279
 30
0.0
  0
VERTEX
  5
4F2
  8
0
 10
434.9867497306725
 20
171.1836333135588
 30
0.0
  0
VERTEX
  5
4F3
  8
0
 10
392.3789291578022
 20
170.801198103497
 30
0.0
  0
VERTEX
  5
4F4
  8
0
 10
349.8085663705859
 20
168.9324877594376
 30
0.0
  0
VERTEX
  5
4F5
  8
0
 10
307.2712458961678
 20
165.6388939403752
 30
0.0
  0
VERTEX
  5
4F6
  8
0
 10
264.7625522616917
 20
160.9818083053047
 30
0.0
  0
VERTEX
  5
4F7
  8
0
 10
222.2780699943015
 20
155.022622513221
 30
0.0
  0
VERTEX
  5
4F8
  8
0
 10
179.8133836211412
 20
147.8227282231189
 30
0.0
  0
VERTEX
  5
4F9
  8
0
 10
137.3640776693548
 20
139.4435170939932
 30
0.0
  0
VERTEX
  5
4FA
  8
0
 10
94.92573666608604
 20
129.9463807848387
 30
0.0
  0
VERTEX
  5
4FB
  8
0
 10
52.49394513847901
 20
119.3927109546503
 30
0.0
  0
VERTEX
  5
4FC
  8
0
 10
10.06428761367752
 20
107.8438992624228
 30
0.0
  0
VERTEX
  5
4FD
  8
0
 10
-32.3676511673965
 20
95.36133718168887
 30
0.0
  0
VERTEX
  5
4FE
  8
0
 10
-74.78585451738826
 20
81.98869053227061
 30
0.0
  0
VERTEX
  5
4FF
  8
0
 10
-117.0978775769708
 20
67.70332017794766
 30
0.0
  0
VERTEX
  5
500
  8
0
 10
-159.1934084785817
 20
52.46708653070152
 30
0.0
  0
VERTEX
  5
501
  8
0
 10
-200.9621353546586
 20
36.24185000251369
 30
0.0
  0
VERTEX
  5
502
  8
0
 10
-242.2937463376391
 20
18.98947100536566
 30
0.0
  0
VERTEX
  5
503
  8
0
 10
-283.0779295599605
 20
0.6718099512389415
 30
0.0
  0
VERTEX
  5
504
  8
0
 10
-323.2043731540604
 20
-18.749272747885
 30
0.0
  0
VERTEX
  5
505
  8
0
 10
-362.5627652523764
 20
-39.31191668002462
 30
0.0
  0
VERTEX
  5
506
  8
0
 10
-401.0427939873462
 20
-61.05426143319846
 30
0.0
  0
VERTEX
  5
507
  8
0
 10
-438.534147491407
 20
-84.01444659542503
 30
0.0
  0
VERTEX
  5
508
  8
0
 10
-474.9265138969967
 20
-108.2306117547228
 30
0.0
  0
VERTEX
  5
509
  8
0
 10
-510.1095813365525
 20
-133.7408964991103
 30
0.0
  0
VERTEX
  5
50A
  8
0
 10
-543.9730379425123
 20
-160.5834404166061
 30
0.0
  0
VERTEX
  5
50B
  8
0
 10
-576.4065718473134
 20
-188.7963830952285
 30
0.0
  0
VERTEX
  5
50C
  8
0
 10
-607.2998711833935
 20
-218.4178641229962
 30
0.0
  0
VERTEX
  5
50D
  8
0
 10
-636.5426240831901
 20
-249.4860230879276
 30
0.0
  0
VERTEX
  5
50E
  8
0
 10
-664.0245186791406
 20
-282.0389995780413
 30
0.0
  0
VERTEX
  5
50F
  8
0
 10
-689.6352431036827
 20
-316.1149331813557
 30
0.0
  0
VERTEX
  5
510
  8
0
 10
-713.2644854365351
 20
-351.7519634009153
 30
0.0
  0
SEQEND
  5
511
  8
0
  0
POLYLINE
  5
285
  8
0
 66
     1
 10
0.0
 20
0.0
 30
0.0
 40
9.0
 41
9.0
  0
VERTEX
  5
513
  8
0
 10
2270.383330745198
 20
-676.7309146503803
 30
0.0
  0
VERTEX
  5
514
  8
0
 10
2264.184250893436
 20
-689.9719419054272
 30
0.0
  0
SEQEND
  5
512
  8
0
  0
POLYLINE
  5
286
  8
0
 66
     1
 10
0.0
 20
0.0
 30
0.0
 40
9.0
 41
9.0
  0
VERTEX
  5
516
  8
0
 10
2183.544222212328
 20
-774.7909239216751
 30
0.0
  0
VERTEX
  5
517
  8
0
 10
2175.83651989503
 20
-787.2144789187478
 30
0.0
  0
SEQEND
  5
515
  8
0
  0
POLYLINE
  5
287
  8
0
 66
     1
 10
0.0
 20
0.0
 30
0.0
 40
9.0
 41
9.0
  0
VERTEX
  5
519
  8
0
 10
2170.364433972004
 20
-796.0345860810157
 30
0.0
  0
VERTEX
  5
51A
  8
0
 10
2162.656731654705
 20
-808.4581410780884
 30
0.0
  0
SEQEND
  5
518
  8
0
  0
POLYLINE
  5
288
  8
0
 66
     1
 10
0.0
 20
0.0
 30
0.0
 40
9.0
 41
9.0
  0
VERTEX
  5
51C
  8
0
 10
1286.478947586275
 20
10.41703251377749
 30
0.0
  0
VERTEX
  5
51D
  8
0
 10
1278.771245268976
 20
-2.006522483296976
 30
0.0
  0
SEQEND
  5
51B
  8
0
  0
POLYLINE
  5
289
  8
0
 66
     1
 10
0.0
 20
0.0
 30
0.0
 40
9.0
 41
9.0
  0
VERTEX
  5
51F
  8
0
 10
2279.291476806634
 20
-713.9692638433889
 30
0.0
  0
VERTEX
  5
520
  8
0
 10
2273.092396954872
 20
-727.2102910984359
 30
0.0
  0
SEQEND
  5
51E
  8
0
  0
POLYLINE
  5
28A
  8
0
 66
     1
 10
0.0
 20
0.0
 30
0.0
 40
9.0
 41
9.0
  0
VERTEX
  5
522
  8
0
 10
2270.374381498631
 20
-616.9983486781375
 30
0.0
  0
VERTEX
  5
523
  8
0
 10
2264.175301646869
 20
-630.2393759331835
 30
0.0
  0
SEQEND
  5
521
  8
0
  0
POLYLINE
  5
28B
  8
0
 66
     1
 10
0.0
 20
0.0
 30
0.0
 40
9.0
 41
9.0
  0
VERTEX
  5
525
  8
0
 10
632.9154333453253
 20
193.3584056067894
 30
0.0
 42
-0.0869817412162928
  0
VERTEX
  5
526
  8
0
 10
866.2035151504515
 20
126.559958508522
 30
0.0
 42
-0.0088906497747728
  0
VERTEX
  5
527
  8
0
 10
944.0202089089089
 20
87.01404811606517
 30
0.0
 42
-0.0216538800605134
  0
VERTEX
  5
528
  8
0
 10
1030.05176555818
 20
36.46069141795033
 30
0.0
 42
-10.05204687655271
  0
SEQEND
  5
524
  8
0
  0
POLYLINE
  5
28C
  8
0
 66
     1
 10
0.0
 20
0.0
 30
0.0
 40
9.0
 41
9.0
  0
VERTEX
  5
52A
  8
0
 10
-713.2644854892542
 20
-351.75196348589
 30
0.0
 42
-0.1260547797655288
  0
VERTEX
  5
52B
  8
0
 10
-371.0893127118679
 20
-43.98258779022126
 30
0.0
 42
-0.0230239801146226
  0
VERTEX
  5
52C
  8
0
 10
-185.897866920408
 20
42.22755977461293
 30
0.0
 42
-0.0283547316139696
  0
VERTEX
  5
52D
  8
0
 10
-31.41898229804065
 20
95.65016056801687
 30
0.0
 42
-0.0158378467828083
  0
VERTEX
  5
52E
  8
0
 10
171.1396725317391
 20
146.2046679028035
 30
0.0
 42
-0.0295942659588221
  0
VERTEX
  5
52F
  8
0
 10
272.9732874880756
 20
161.9849513673444
 30
0.0
 42
-0.0076712675181049
  0
VERTEX
  5
530
  8
0
 10
378.2472023359605
 20
170.3427864571459
 30
0.0
 42
-0.0428702449386979
  0
VERTEX
  5
531
  8
0
 10
520.3324261247999
 20
167.2441116957098
 30
0.0
 42
-3.870021075592302
  0
SEQEND
  5
529
  8
0
  0
POLYLINE
  5
28D
  8
0
 66
     1
 10
0.0
 20
0.0
 30
0.0
 40
9.0
 41
9.0
  0
VERTEX
  5
533
  8
0
 10
355.953839680531
 20
139.9698042431182
 30
0.0
 42
0.0442338753476241
  0
VERTEX
  5
534
  8
0
 10
-23.61700861868303
 20
71.89875167502123
 30
0.0
 42
0.0389182843728958
  0
VERTEX
  5
535
  8
0
 10
-261.8575632490574
 20
-13.35752092244547
 30
0.0
 42
0.0340511872473075
  0
VERTEX
  5
536
  8
0
 10
-412.4338932122855
 20
-93.58253084803619
 30
0.0
 42
0.0385146525295458
  0
VERTEX
  5
537
  8
0
 10
-537.350774104113
 20
-185.5440720533161
 30
0.0
 42
0.07396732096578
  0
VERTEX
  5
538
  8
0
 10
-692.0208233299154
 20
-364.9317517262152
 30
0.0
 42
3.491077452656592
  0
SEQEND
  5
532
  8
0
  0
POLYLINE
  5
28E
  8
0
 66
     1
 10
0.0
 20
0.0
 30
0.0
 40
9.0
 41
9.0
  0
VERTEX
  5
53A
  8
0
 10
-1025.806601154092
 20
-808.6740737401697
 30
0.0
  0
VERTEX
  5
53B
  8
0
 10
-995.1981353744413
 20
-735.9159141331493
 30
0.0
  0
SEQEND
  5
539
  8
0
  0
POLYLINE
  5
28F
  8
0
 66
     1
 10
0.0
 20
0.0
 30
0.0
  0
VERTEX
  5
53C
  8
0
 10
-956.6318827973646
 20
-791.4414837834074
 30
0.0
  0
VERTEX
  5
53D
  8
0
 10
-962.7628178991513
 20
-801.4790689523487
 30
0.0
  0
VERTEX
  5
53E
  8
0
 10
-968.7562319863517
 20
-811.5956114144777
 30
0.0
  0
VERTEX
  5
53F
  8
0
 10
-974.6191464928784
 20
-821.7867937781763
 30
0.0
  0
VERTEX
  5
540
  8
0
 10
-980.358582852644
 20
-832.0482986518255
 30
0.0
  0
VERTEX
  5
541
  8
0
 10
-985.9815624995608
 20
-842.375808643807
 30
0.0
  0
VERTEX
  5
542
  8
0
 10
-991.4951068675416
 20
-852.7650063625024
 30
0.0
  0
VERTEX
  5
543
  8
0
 10
-996.9062373904989
 20
-863.2115744162929
 30
0.0
  0
VERTEX
  5
544
  8
0
 10
-1002.221975502345
 20
-873.7111954135603
 30
0.0
  0
VERTEX
  5
545
  8
0
 10
-1007.449342636993
 20
-884.2595519626858
 30
0.0
  0
VERTEX
  5
546
  8
0
 10
-1012.595360228354
 20
-894.8523266720511
 30
0.0
  0
VERTEX
  5
547
  8
0
 10
-1017.667049710342
 20
-905.4852021500374
 30
0.0
  0
VERTEX
  5
548
  8
0
 10
-1022.67143251687
 20
-916.1538610050263
 30
0.0
  0
VERTEX
  5
549
  8
0
 10
-1027.615530081849
 20
-926.8539858453995
 30
0.0
  0
VERTEX
  5
54A
  8
0
 10
-1032.506363839192
 20
-937.5812592795382
 30
0.0
  0
VERTEX
  5
54B
  8
0
 10
-1037.350955222812
 20
-948.3313639158241
 30
0.0
  0
VERTEX
  5
54C
  8
0
 10
-1042.156325666621
 20
-959.0999823626385
 30
0.0
  0
VERTEX
  5
54D
  8
0
 10
-1046.929496604531
 20
-969.8827972283629
 30
0.0
  0
VERTEX
  5
54E
  8
0
 10
-1051.677211907548
 20
-980.6756214114168
 30
0.0
  0
VERTEX
  5
54F
  8
0
 10
-1056.398951559025
 20
-991.4776775316481
 30
0.0
  0
VERTEX
  5
550
  8
0
 10
-1061.086406313068
 20
-1002.291844529484
 30
0.0
  0
VERTEX
  5
551
  8
0
 10
-1065.730884131933
 20
-1013.121181030614
 30
0.0
  0
VERTEX
  5
552
  8
0
 10
-1070.323692977878
 20
-1023.968745660728
 30
0.0
  0
VERTEX
  5
553
  8
0
 10
-1074.856140813157
 20
-1034.837597045517
 30
0.0
  0
VERTEX
  5
554
  8
0
 10
-1079.319535600029
 20
-1045.730793810671
 30
0.0
  0
VERTEX
  5
555
  8
0
 10
-1083.705185300749
 20
-1056.65139458188
 30
0.0
  0
VERTEX
  5
556
  8
0
 10
-1088.004397877576
 20
-1067.602457984834
 30
0.0
  0
VERTEX
  5
557
  8
0
 10
-1092.208481292764
 20
-1078.587042645223
 30
0.0
  0
VERTEX
  5
558
  8
0
 10
-1096.308743508572
 20
-1089.608207188738
 30
0.0
  0
VERTEX
  5
559
  8
0
 10
-1100.296492487255
 20
-1100.669010241068
 30
0.0
  0
VERTEX
  5
55A
  8
0
 10
-1104.16303619107
 20
-1111.772510427904
 30
0.0
  0
VERTEX
  5
55B
  8
0
 10
-1107.899682582274
 20
-1122.921766374935
 30
0.0
  0
VERTEX
  5
55C
  8
0
 10
-1111.497739593153
 20
-1134.11983661245
 30
0.0
  0
SEQEND
  5
55D
  8
0
  0
POLYLINE
  5
290
  8
0
 66
     1
 10
0.0
 20
0.0
 30
0.0
 40
9.0
 41
9.0
  0
VERTEX
  5
55F
  8
0
 10
-692.0208233299154
 20
-364.9317517262152
 30
0.0
  0
VERTEX
  5
560
  8
0
 10
-956.6318827973646
 20
-791.4414837834074
 30
0.0
  0
SEQEND
  5
55E
  8
0
  0
POLYLINE
  5
291
  8
0
 66
     1
 10
0.0
 20
0.0
 30
0.0
 40
9.0
 41
9.0
  0
VERTEX
  5
562
  8
0
 10
-956.6318827973646
 20
-791.4414837834074
 30
0.0
 42
0.0371246286822164
  0
VERTEX
  5
563
  8
0
 10
-1057.684330545149
 20
-994.4330701333438
 30
0.0
 42
0.0262902788456976
  0
VERTEX
  5
564
  8
0
 10
-1111.497739623124
 20
-1134.119836707853
 30
0.0
 42
18.27945396507639
  0
SEQEND
  5
561
  8
0
  0
POLYLINE
  5
292
  8
0
 66
     1
 10
0.0
 20
0.0
 30
0.0
  0
VERTEX
  5
565
  8
0
 10
-674.6507165586918
 20
-163.0604758003356
 30
0.0
  0
VERTEX
  5
566
  8
0
 10
-691.7935260802798
 20
-177.2612910305938
 30
0.0
  0
VERTEX
  5
567
  8
0
 10
-708.1437501992617
 20
-192.2273741499558
 30
0.0
  0
VERTEX
  5
568
  8
0
 10
-723.7383916984583
 20
-207.9153915934376
 30
0.0
  0
VERTEX
  5
569
  8
0
 10
-738.6144533606897
 20
-224.282009796055
 30
0.0
  0
VERTEX
  5
56A
  8
0
 10
-752.8089379687764
 20
-241.2838951928239
 30
0.0
  0
VERTEX
  5
56B
  8
0
 10
-766.3588483055387
 20
-258.8777142187603
 30
0.0
  0
VERTEX
  5
56C
  8
0
 10
-779.301187153797
 20
-277.0201333088801
 30
0.0
  0
VERTEX
  5
56D
  8
0
 10
-791.6729572963716
 20
-295.6678188981992
 30
0.0
  0
VERTEX
  5
56E
  8
0
 10
-803.5111615160829
 20
-314.7774374217335
 30
0.0
  0
VERTEX
  5
56F
  8
0
 10
-814.8528025957514
 20
-334.305655314499
 30
0.0
  0
VERTEX
  5
570
  8
0
 10
-825.7348833181973
 20
-354.2091390115114
 30
0.0
  0
VERTEX
  5
571
  8
0
 10
-836.1944064662411
 20
-374.4445549477869
 30
0.0
  0
VERTEX
  5
572
  8
0
 10
-846.268374822703
 20
-394.9685695583412
 30
0.0
  0
VERTEX
  5
573
  8
0
 10
-855.9937911704035
 20
-415.7378492781903
 30
0.0
  0
VERTEX
  5
574
  8
0
 10
-865.407658292163
 20
-436.7090605423501
 30
0.0
  0
VERTEX
  5
575
  8
0
 10
-874.5469789708018
 20
-457.8388697858366
 30
0.0
  0
VERTEX
  5
576
  8
0
 10
-883.4487559891403
 20
-479.0839434436657
 30
0.0
  0
VERTEX
  5
577
  8
0
 10
-892.1499921299987
 20
-500.4009479508531
 30
0.0
  0
VERTEX
  5
578
  8
0
 10
-900.6876901761978
 20
-521.746549742415
 30
0.0
  0
VERTEX
  5
579
  8
0
 10
-909.0988529105574
 20
-543.0774152533672
 30
0.0
  0
VERTEX
  5
57A
  8
0
 10
-917.4204831158985
 20
-564.3502109187256
 30
0.0
  0
VERTEX
  5
57B
  8
0
 10
-925.689583575041
 20
-585.521603173506
 30
0.0
  0
VERTEX
  5
57C
  8
0
 10
-933.9431570708052
 20
-606.5482584527246
 30
0.0
  0
VERTEX
  5
57D
  8
0
 10
-942.2182063488492
 20
-627.3868430985586
 30
0.0
  0
SEQEND
  5
57E
  8
0
  0
POLYLINE
  5
293
  8
0
 66
     1
 10
0.0
 20
0.0
 30
0.0
  0
VERTEX
  5
57F
  8
0
 10
469.4944174279153
 20
207.1269043093307
 30
0.0
  0
VERTEX
  5
580
  8
0
 10
427.1707550075304
 20
209.7328308658109
 30
0.0
  0
VERTEX
  5
581
  8
0
 10
384.9078896223978
 20
210.4765995725703
 30
0.0
  0
VERTEX
  5
582
  8
0
 10
342.7008904158707
 20
209.4528145563826
 30
0.0
  0
VERTEX
  5
583
  8
0
 10
300.5448265313019
 20
206.7560799440213
 30
0.0
  0
VERTEX
  5
584
  8
0
 10
258.4347671120444
 20
202.48099986226
 30
0.0
  0
VERTEX
  5
585
  8
0
 10
216.3657813014513
 20
196.7221784378721
 30
0.0
  0
VERTEX
  5
586
  8
0
 10
174.3329382428753
 20
189.5742197976313
 30
0.0
  0
VERTEX
  5
587
  8
0
 10
132.3313070796695
 20
181.1317280683111
 30
0.0
  0
VERTEX
  5
588
  8
0
 10
90.35595695518683
 20
171.4893073766851
 30
0.0
  0
VERTEX
  5
589
  8
0
 10
48.40195701278021
 20
160.7415618495268
 30
0.0
  0
VERTEX
  5
58A
  8
0
 10
6.464376395802635
 20
148.9830956136098
 30
0.0
  0
VERTEX
  5
58B
  8
0
 10
-35.46171575239294
 20
136.3085127957077
 30
0.0
  0
VERTEX
  5
58C
  8
0
 10
-77.37242665530579
 20
122.8013671083653
 30
0.0
  0
VERTEX
  5
58D
  8
0
 10
-119.1983699337488
 20
108.463190332018
 30
0.0
  0
VERTEX
  5
58E
  8
0
 10
-160.8406942911799
 20
93.25861339951064
 30
0.0
  0
VERTEX
  5
58F
  8
0
 10
-202.200407061257
 20
77.15209019701948
 30
0.0
  0
VERTEX
  5
590
  8
0
 10
-243.1785155776377
 20
60.10807461072091
 30
0.0
  0
VERTEX
  5
591
  8
0
 10
-283.6760271739801
 20
42.09102052679127
 30
0.0
  0
VERTEX
  5
592
  8
0
 10
-323.5939491839417
 20
23.06538183140695
 30
0.0
  0
VERTEX
  5
593
  8
0
 10
-362.8332889411805
 20
2.995612410744272
 30
0.0
  0
VERTEX
  5
594
  8
0
 10
-401.2950537793541
 20
-18.1538338490204
 30
0.0
  0
VERTEX
  5
595
  8
0
 10
-438.8802510321206
 20
-40.41850306171071
 30
0.0
  0
VERTEX
  5
596
  8
0
 10
-475.4898880331375
 20
-63.83394134115035
 30
0.0
  0
VERTEX
  5
597
  8
0
 10
-511.0249721160628
 20
-88.43569480116288
 30
0.0
  0
VERTEX
  5
598
  8
0
 10
-545.386510614554
 20
-114.259309555572
 30
0.0
  0
VERTEX
  5
599
  8
0
 10
-578.4755108622694
 20
-141.3403317182012
 30
0.0
  0
VERTEX
  5
59A
  8
0
 10
-610.1929801928662
 20
-169.7143074028744
 30
0.0
  0
VERTEX
  5
59B
  8
0
 10
-640.4399259400028
 20
-199.4167827234151
 30
0.0
  0
VERTEX
  5
59C
  8
0
 10
-669.1173554373366
 20
-230.4833037936469
 30
0.0
  0
VERTEX
  5
59D
  8
0
 10
-696.1262760185255
 20
-262.9494167273936
 30
0.0
  0
VERTEX
  5
59E
  8
0
 10
-721.3676950172275
 20
-296.8506676384787
 30
0.0
  0
VERTEX
  5
59F
  8
0
 10
-744.7426197143811
 20
-332.2226025557514
 30
0.0
  0
SEQEND
  5
5A0
  8
0
  0
LINE
  5
294
  8
0
 10
1065.743101776628
 20
192.0834936612382
 30
0.0
 11
480.1603374553561
 21
322.2718799295426
 31
0.0
  0
LINE
  5
295
  8
0
 10
480.1603374553561
 20
322.2718799295426
 30
0.0
 11
-109.2249867728115
 21
332.5205290872709
 31
0.0
  0
POLYLINE
  5
296
  8
0
 66
     1
 10
0.0
 20
0.0
 30
0.0
 40
9.0
 41
9.0
  0
VERTEX
  5
5A2
  8
0
 10
123.1489826982224
 20
106.4689808501635
 30
0.0
 42
-0.0524077792830309
  0
VERTEX
  5
5A3
  8
0
 10
311.1884467102027
 20
112.9533301098927
 30
0.0
 42
-19.08113668773295
  0
SEQEND
  5
5A1
  8
0
  0
POLYLINE
  5
297
  8
0
 66
     1
 10
0.0
 20
0.0
 30
0.0
 40
9.0
 41
9.0
  0
VERTEX
  5
5A5
  8
0
 10
510.6951513375789
 20
98.91499656473116
 30
0.0
  0
VERTEX
  5
5A6
  8
0
 10
311.1884467102027
 20
112.9533301098927
 30
0.0
  0
SEQEND
  5
5A4
  8
0
  0
POLYLINE
  5
298
  8
0
 66
     1
 10
0.0
 20
0.0
 30
0.0
  0
VERTEX
  5
5A7
  8
0
 10
510.6951513375789
 20
98.91499656473116
 30
0.0
  0
VERTEX
  5
5A8
  8
0
 10
529.0150300066345
 20
97.50318572674701
 30
0.0
  0
VERTEX
  5
5A9
  8
0
 10
547.3793270621463
 20
95.83641080009041
 30
0.0
  0
VERTEX
  5
5AA
  8
0
 10
565.7737387939429
 20
93.90610592971518
 30
0.0
  0
VERTEX
  5
5AB
  8
0
 10
584.1839614918521
 20
91.70370526057513
 30
0.0
  0
VERTEX
  5
5AC
  8
0
 10
602.5956914457024
 20
89.22064293762411
 30
0.0
  0
VERTEX
  5
5AD
  8
0
 10
620.9946249453221
 20
86.44835310581588
 30
0.0
  0
VERTEX
  5
5AE
  8
0
 10
639.3664582805395
 20
83.37826991010427
 30
0.0
  0
VERTEX
  5
5AF
  8
0
 10
657.6968877411824
 20
80.00182749544307
 30
0.0
  0
VERTEX
  5
5B0
  8
0
 10
675.9716096170794
 20
76.31046000678612
 30
0.0
  0
VERTEX
  5
5B1
  8
0
 10
694.1763201980589
 20
72.2956015890872
 30
0.0
  0
VERTEX
  5
5B2
  8
0
 10
712.2967157739487
 20
67.94868638730016
 30
0.0
  0
VERTEX
  5
5B3
  8
0
 10
730.3184926345773
 20
63.26114854637879
 30
0.0
  0
VERTEX
  5
5B4
  8
0
 10
748.227347069773
 20
58.22442221127689
 30
0.0
  0
VERTEX
  5
5B5
  8
0
 10
766.008975369364
 20
52.82994152694828
 30
0.0
  0
VERTEX
  5
5B6
  8
0
 10
783.6490738231784
 20
47.06914063834678
 30
0.0
  0
VERTEX
  5
5B7
  8
0
 10
801.1333387210447
 20
40.93345369042619
 30
0.0
  0
VERTEX
  5
5B8
  8
0
 10
818.4474663527908
 20
34.41431482814033
 30
0.0
  0
VERTEX
  5
5B9
  8
0
 10
835.5771530082453
 20
27.503158196443
 30
0.0
  0
VERTEX
  5
5BA
  8
0
 10
852.5080949772363
 20
20.19141794028801
 30
0.0
  0
VERTEX
  5
5BB
  8
0
 10
869.225988549592
 20
12.47052820462918
 30
0.0
  0
VERTEX
  5
5BC
  8
0
 10
885.7165300151407
 20
4.331923134420322
 30
0.0
  0
VERTEX
  5
5BD
  8
0
 10
901.9654156637105
 20
-4.232963125384764
 30
0.0
  0
VERTEX
  5
5BE
  8
0
 10
917.95834178513
 20
-13.23269642983226
 30
0.0
  0
VERTEX
  5
5BF
  8
0
 10
933.6810045842526
 20
-22.67584258124922
 30
0.0
  0
SEQEND
  5
5C0
  8
0
  0
POLYLINE
  5
299
  8
0
 66
     1
 10
0.0
 20
0.0
 30
0.0
 40
9.0
 41
9.0
  0
VERTEX
  5
5C2
  8
0
 10
510.6951513375789
 20
98.91499656473116
 30
0.0
 42
-0.054667142548387
  0
VERTEX
  5
5C3
  8
0
 10
752.6789651408035
 20
56.91154430088227
 30
0.0
 42
-0.0667712227001215
  0
VERTEX
  5
5C4
  8
0
 10
933.6810046692272
 20
-22.67584263396839
 30
0.0
 42
-7.426596562254869
  0
SEQEND
  5
5C1
  8
0
  0
POLYLINE
  5
29A
  8
0
 66
     1
 10
0.0
 20
0.0
 30
0.0
 40
9.0
 41
9.0
  0
VERTEX
  5
5C6
  8
0
 10
-674.6507165586918
 20
-163.0604758003356
 30
0.0
 42
0.0873126040203523
  0
VERTEX
  5
5C7
  8
0
 10
-795.0596863414294
 20
-301.0053793458455
 30
0.0
 42
0.0466465805483881
  0
VERTEX
  5
5C8
  8
0
 10
-942.2182063860118
 20
-627.386843191397
 30
0.0
 42
10.36220665020589
  0
SEQEND
  5
5C5
  8
0
  0
POLYLINE
  5
29B
  8
0
 66
     1
 10
0.0
 20
0.0
 30
0.0
 40
9.0
 41
9.0
  0
VERTEX
  5
5CA
  8
0
 10
469.4944174279153
 20
207.1269043093307
 30
0.0
 42
0.0996113746102863
  0
VERTEX
  5
5CB
  8
0
 10
-43.90483889773168
 20
133.653366962908
 30
0.0
 42
0.0682027342331556
  0
VERTEX
  5
5CC
  8
0
 10
-473.725982482677
 20
-62.66303458758466
 30
0.0
 42
0.1076734590970664
  0
VERTEX
  5
5CD
  8
0
 10
-744.7426197671002
 20
-332.2226026407261
 30
0.0
 42
3.355881178061746
  0
SEQEND
  5
5C9
  8
0
  0
POLYLINE
  5
29C
  8
0
 66
     1
 10
0.0
 20
0.0
 30
0.0
 40
9.0
 41
9.0
  0
VERTEX
  5
5CF
  8
0
 10
-248.7490726499427
 20
186.4003237627612
 30
0.0
  0
VERTEX
  5
5D0
  8
0
 10
-234.6570325455141
 20
168.4823098909919
 30
0.0
  0
SEQEND
  5
5CE
  8
0
  0
LINE
  5
29D
  8
0
 62
     2
 10
1860.134018714479
 20
-712.6524186837069
 30
0.0
 11
1675.616983349927
 21
-1010.063688914471
 31
0.0
  0
LINE
  5
29E
  8
0
 62
     2
 10
-503.8565769393472
 20
-1010.063688914471
 30
0.0
 11
-801.267847170112
 21
-825.546653549919
 31
0.0
  0
LINE
  5
29F
  8
0
 62
     2
 10
1675.616983349927
 20
-1010.063688914471
 30
0.0
 11
-503.8565769393472
 21
-1010.063688914471
 31
0.0
  0
DIMENSION
  5
2A0
  8
INFO
  2
*D6
 10
2370.953704846498
 20
-1316.253461573162
 30
0.0
 11
517.782795324692
 21
-1316.253461573162
 31
0.0
 70
    32
  3
STANDARD
 13
-1335.388114197114
 23
-1022.565790567119
 33
0.0
 14
2370.953704846498
 24
-617.6826958243364
 34
0.0
1001
ACAD
1000
DSTYLE
1002
{
1070
    41
1040
50.0
1070
   140
1040
50.0
1070
   271
1070
     0
1002
}
  0
DIMENSION
  5
2A1
  8
INFO
  2
*D7
 10
-1405.557289170064
 20
332.520529087271
 30
0.0
 11
-1405.557289170064
 21
-437.2811484221996
 31
0.0
 70
    32
 53
90.0
  3
STANDARD
 13
-1037.976843966349
 23
-1207.08282593167
 33
0.0
 14
-109.2249867728115
 24
332.5205290872709
 34
0.0
 50
90.0
1001
ACAD
1000
DSTYLE
1002
{
1070
    41
1040
50.0
1070
   140
1040
50.0
1070
   271
1070
     0
1002
}
  0
TEXT
  5
2A2
  8
0
 10
-20.46407474871285
 20
-119.6979538412988
 30
0.0
 40
50.0
  1
JeBec
  0
TEXT
  5
2A3
  8
0
 10
-68.05162307153933
 20
-184.4297384094207
 30
0.0
 40
50.0
  1
NRE-412
  0
TEXT
  5
2A4
  8
0
 62
     2
 10
-59.2881179351125
 20
268.2991297559256
 30
0.0
 40
25.0
  1
DL 03/12
  0
DIMENSION
  5
2A5
  8
INFO
  2
*D8
 10
2597.309351307821
 20
-759.0368231879274
 30
0.0
 11
2505.050833625544
 21
-907.4299583033094
 31
0.0
 70
    33
 53
58.13008557156036
  3
STANDARD
 13
2186.436669481945
 23
-915.0939660551003
 33
0.0
 14
2370.953704846498
 24
-618.3076958243364
 34
0.0
1001
ACAD
1000
DSTYLE
1002
{
1070
    41
1040
50.0
1070
   140
1040
50.0
1070
   271
1070
     0
1002
}
  0
DIMENSION
  5
2A6
  8
INFO
  2
*D9
 10
-1214.800779940352
 20
-1491.453081134328
 30
0.0
 11
-1363.193915055735
 21
-1399.507063452052
 31
0.0
 70
    33
 53
328.2171897393491
  3
STANDARD
 13
-1335.388114197114
 23
-1023.190790567119
 33
0.0
 14
-1038.601843966349
 24
-1207.08282593167
 34
0.0
1001
ACAD
1000
DSTYLE
1002
{
1070
    41
1040
50.0
1070
   140
1040
50.0
1070
   271
1070
     0
1002
}
  0
ENDBLK
  5
2C2
  8
0
  0
ENDSEC
  0
SECTION
  2
ENTITIES
  0
INSERT
  5
2A9
  8
0
  2
NRE-412
 10
0.0
 20
0.0
 30
0.0
  0
ENDSEC
  0
EOF
